<?xml version="1.0" standalone="no"?>
<!DOCTYPE svg PUBLIC "-//W3C//DTD SVG 1.1//EN" "http://www.w3.org/Graphics/SVG/1.1/DTD/svg11.dtd" >
<svg xmlns="http://www.w3.org/2000/svg">
<metadata>
This is a custom SVG webfont generated by Font Squirrel.
Copyright   : Part of the digitally encoded machine readable outline data for producing the Typefaces provided is copyrighted  2003  2006 Linotype GmbH wwwlinotypecom All rights reserved This software is the property of Linotype GmbH and may not be reproduced modified disclosed or transferred without the express written approval of Linotype GmbH Copyright  1988 1990 1993 Adobe Systems Incorporated All Rights Reserved Helvetica is a trademark of Heidelberger Druckmaschinen AG exclusively licensed through Linotype GmbH and may be registered in certain jurisdictions This typeface is original artwork of Linotype Design Studio The design may be protected in certain jurisdictions
Designer    : Linotype Design Studio
Foundry     : Linotype GmbH
Foundry URL : httpwwwlinotypecom
</metadata>
<defs>
<font id="webfontGemvfUSv" horiz-adv-x="1478" >
<font-face units-per-em="2048" ascent="1462" descent="-586" />
<missing-glyph horiz-adv-x="720" />
<glyph unicode=" "  horiz-adv-x="720" />
<glyph unicode="&#x09;" horiz-adv-x="720" />
<glyph unicode="&#xa0;" horiz-adv-x="720" />
<glyph unicode="!" horiz-adv-x="720" d="M201 0v291h319v-291h-319zM201 1071v391h319v-391l-57 -643h-205z" />
<glyph unicode="&#x22;" horiz-adv-x="720" d="M66 829v633h204v-633h-204zM451 829v633h204v-633h-204z" />
<glyph unicode="#" horiz-adv-x="1228" d="M532 829l-32 -237h196l33 237h-197zM674 424h-197l-59 -424h-180l59 424h-184v168h206l33 237h-184v168h207l59 424h180l-59 -424h197l59 424h180l-59 -424h184v-168h-207l-32 -237h184v-168h-207l-59 -424h-181z" />
<glyph unicode="$" horiz-adv-x="1515" d="M702 -238v205q-657 31 -667 496h332q14 -244 335 -279v422l-129 19q-43 6 -122.5 22.5t-121.5 33.5t-99.5 49t-86 70t-50 93t-21.5 125q0 217 174 322.5t456 109.5v119h107v-119q102 -6 193.5 -28.5t187.5 -69.5t161.5 -135.5t80.5 -210.5h-332q-6 76 -84 137t-207 78 v-373q86 -8 136 -15.5t130 -22.5t129 -33.5t107.5 -50.5t91.5 -72t55.5 -99t22.5 -131q0 -125 -60.5 -217t-164 -141.5t-213 -73t-234.5 -25.5v-205h-107zM702 854v367q-311 -10 -311 -189q0 -80 77.5 -117.5t233.5 -60.5zM809 584v-400q150 4 245 53.5t95 149.5 q0 90 -87 132t-253 65z" />
<glyph unicode="%" horiz-adv-x="2086" d="M1202 364.5q0 184.5 94.5 291t295 106.5t294.5 -106.5t94 -291t-94 -291t-294.5 -106.5t-295 106.5t-94.5 291zM106 1052.5q0 184.5 94.5 291t295 106.5t295 -106.5t94.5 -291t-94.5 -291t-295 -106.5t-295 106.5t-94.5 291zM1407 364.5q0 -96.5 43 -169t141.5 -72.5 t141.5 72.5t43 169t-43 169t-141.5 72.5t-141.5 -72.5t-43 -169zM520 -33l854 1483h193l-854 -1483h-193zM311 1052.5q0 -96.5 43 -169t141.5 -72.5t141.5 72.5t43 169t-43 169t-141.5 72.5t-141.5 -72.5t-43 -169z" />
<glyph unicode="&#x26;" horiz-adv-x="1781" d="M1112 293l-438 407q-53 -27 -82 -43t-73 -51t-65.5 -78t-21.5 -94q0 -78 34 -134t89 -84t108.5 -40t108.5 -12q82 0 151.5 22.5t104.5 45t84 61.5zM784 928q61 31 80 42t55.5 37.5t49 55.5t12.5 67q0 139 -168 140q-88 0 -128 -38t-40 -95q0 -35 27.5 -79t47.5 -65z M1436 -2l-158 152q-211 -190 -559 -191q-295 0 -438.5 133t-143.5 320q0 164 119 274.5t272 155.5q-154 127 -153 291q0 150 128 239.5t312 89.5q117 0 203 -30.5t132 -81t67.5 -102.5t21.5 -105q0 -72 -31.5 -132.5t-84 -100.5t-94.5 -63.5t-85 -39.5l334 -309 q45 53 79 122.5t42 116.5l211 -55q-27 -164 -166 -336l377 -348h-385z" />
<glyph unicode="'" horiz-adv-x="720" d="M258 829v633h205v-633h-205z" />
<glyph unicode="(" horiz-adv-x="872" d="M172 536.5q0 264.5 101.5 484.5t299.5 441h205q-160 -193 -241.5 -432t-81.5 -493t81.5 -494t241.5 -432h-205q-197 215 -299 438t-102 487.5z" />
<glyph unicode=")" horiz-adv-x="872" d="M700 536.5q0 -264.5 -101 -484.5t-300 -441h-205q160 193 242 432.5t82 493.5t-82 493.5t-242 431.5h205q197 -215 299 -438t102 -487.5z" />
<glyph unicode="*" horiz-adv-x="948" d="M145 821l189 207l-264 98l63 166l252 -100v270h180v-274l250 104l64 -166l-263 -98l191 -207l-141 -108l-195 215l-190 -215z" />
<glyph unicode="+" horiz-adv-x="1228" d="M512 0v416h-416v205h416v415h205v-415h416v-205h-416v-416h-205z" />
<glyph unicode="," horiz-adv-x="720" d="M201 0v291h319v-221q0 -367 -319 -412v121q88 27 115.5 73t35.5 148h-151z" />
<glyph unicode="-" horiz-adv-x="985" d="M131 457v241h723v-241h-723z" />
<glyph unicode="." horiz-adv-x="720" d="M201 0v291h319v-291h-319z" />
<glyph unicode="/" horiz-adv-x="831" d="M-12 -41l622 1544h234l-623 -1544h-233z" />
<glyph unicode="0" horiz-adv-x="1515" d="M1130 711q0 143 -34.5 256.5t-121.5 189.5t-216 76t-216 -76t-122 -189.5t-35 -256.5q0 -229 91 -378t281.5 -149t281.5 149t91 378zM1425 711q0 -338 -172 -541t-520 -203q-315 0 -479 205t-164 539q0 336 172 537.5t520 201.5q313 0 478 -203.5t165 -535.5z" />
<glyph unicode="1" horiz-adv-x="1024" d="M477 0v983h-428v205h86q61 0 118.5 10t122 34.5t110.5 79t61 130.5h225v-1442h-295z" />
<glyph unicode="2" horiz-adv-x="1515" d="M1382 0h-1292q0 129 45 235.5t130 184.5t177.5 134t216.5 108q262 115 322 155q96 70 96 180q0 82 -51 137.5t-114.5 77t-127.5 21.5q-164 0 -253 -80t-101 -225h-307q0 254 174 388t451 134q174 0 312 -44t231 -155.5t93 -279.5q0 -162 -111.5 -264.5t-305.5 -180.5 l-129 -49q-88 -33 -134.5 -52t-109 -51t-100 -67t-60.5 -78h948v-229z" />
<glyph unicode="3" horiz-adv-x="1515" d="M94 455h295q23 -270 361 -271q154 0 253 62.5t99 175.5q0 39 -12.5 73.5t-45 71.5t-103.5 58.5t-171 21.5h-172v205h193q262 0 262 174q0 88 -76 147.5t-240 59.5q-152 0 -227.5 -71.5t-81.5 -174.5h-295q16 166 110.5 273.5t226.5 148.5t302 41q311 0 449.5 -119 t138.5 -299q0 -82 -53.5 -154.5t-167.5 -107.5v-4q129 -31 205.5 -120t76.5 -206q0 -57 -11 -110.5t-53 -123t-111.5 -119.5t-198.5 -85t-302 -35q-125 0 -231 22.5t-205.5 74t-157 152t-57.5 239.5z" />
<glyph unicode="4" horiz-adv-x="1515" d="M80 311v242l778 889h320v-914h258v-217h-258v-311h-271v311h-827zM907 528v656h-4l-541 -656h545z" />
<glyph unicode="5" horiz-adv-x="1515" d="M143 641l136 776h1032v-229h-824l-61 -324q160 88 377 88q264 0 435 -118.5t171 -341.5q0 -240 -169 -382.5t-495 -142.5q-289 0 -464 114t-191 320h307q49 -217 342 -217q96 0 174 23.5t133.5 88t55.5 163.5q0 141 -99.5 215t-246.5 74q-199 0 -326 -113z" />
<glyph unicode="6" horiz-adv-x="1515" d="M420 452.5q0 -116.5 83 -192.5t261 -76q176 0 259 76t83 192.5t-83 193.5t-259 77q-178 0 -261 -77t-83 -193.5zM1376 1061h-301q-43 172 -282 172q-186 0 -293 -123t-115 -330q90 90 190.5 125t251.5 35q301 0 443.5 -135t142.5 -336q0 -205 -165 -353.5t-490 -148.5 q-668 0 -668 744q0 90 14.5 179t59.5 193.5t114.5 183.5t193.5 131t286 52q565 0 618 -389z" />
<glyph unicode="7" horiz-adv-x="1366" d="M33 1176v241h1274v-248q-584 -653 -666 -1169h-356q29 268 253 610t461 566h-966z" />
<glyph unicode="8" horiz-adv-x="1515" d="M410 420q0 -109 87 -172.5t261 -63.5t261 63.5t87 172.5q0 115 -87 178.5t-261 63.5t-261 -63.5t-87 -178.5zM758 866q297 0 297 181q0 186 -297 186q-299 0 -299 -186q0 -86 77 -133.5t222 -47.5zM90 406q0 289 297 366v4q-236 70 -235 289q0 172 143 278.5t463 106.5 q317 0 460.5 -106.5t143.5 -278.5q0 -219 -236 -289v-4q299 -78 299 -366q0 -70 -27.5 -137.5t-95 -139.5t-208 -117t-337 -45t-337.5 45t-208 117t-94.5 139.5t-27.5 137.5z" />
<glyph unicode="9" horiz-adv-x="1515" d="M1096 964.5q0 116.5 -83 192.5t-261 76q-176 0 -259 -76t-83 -192.5t82.5 -193.5t259.5 -77q178 0 261 77t83 193.5zM139 356h301q43 -172 283 -172q186 0 292.5 123t114.5 330q-90 -90 -190 -125t-252 -35q-301 0 -443.5 135.5t-142.5 335.5q0 205 165 353.5t491 148.5 q668 0 667 -743q0 -90 -14 -179.5t-59 -194t-116 -183t-194.5 -131t-283.5 -52.5q-566 0 -619 389z" />
<glyph unicode=":" horiz-adv-x="720" d="M201 0v291h319v-291h-319zM201 780v291h319v-291h-319z" />
<glyph unicode=";" horiz-adv-x="720" d="M201 780v291h319v-291h-319zM201 0v291h319v-221q0 -367 -319 -412v121q88 27 115.5 73t35.5 148h-151z" />
<glyph unicode="&#x3c;" horiz-adv-x="1228" d="M96 434v168l1037 451v-205l-760 -330l760 -330v-204z" />
<glyph unicode="=" horiz-adv-x="1228" d="M96 188v205h1037v-205h-1037zM96 643v205h1037v-205h-1037z" />
<glyph unicode="&#x3e;" horiz-adv-x="1228" d="M1133 602v-168l-1037 -450v204l760 330l-760 330v205z" />
<glyph unicode="?" horiz-adv-x="1441" d="M518 0v291h320v-291h-320zM1305 1040q0 -100 -50.5 -179t-122 -128t-142 -92t-121 -97.5t-50.5 -117.5h-282v33q0 78 33.5 141.5t85 102t111.5 78.5l112 74q51 34 84.5 87t33.5 117q0 115 -91 164t-214 49q-121 0 -211 -68.5t-94 -214.5h-295q10 244 165 372t445 128 q164 0 286 -40t188.5 -107.5t97.5 -142.5t31 -159z" />
<glyph unicode="@" horiz-adv-x="1638" d="M1081 1006l35 118h158l-123 -479q-31 -119 -31 -164q0 -27 6.5 -37t28.5 -10q98 0 179 121t81 281q0 242 -160.5 377t-408.5 135q-254 0 -426 -176.5t-172 -440.5t172 -440t426 -176q319 0 485 188h162q-104 -166 -271 -255t-366 -89q-326 0 -557 218t-231 554 q0 223 109.5 401.5t291.5 274.5t399 96q287 0 495 -179t208 -454q0 -117 -37 -219t-93.5 -169.5t-124 -116t-131 -71t-114.5 -22.5q-55 0 -91 32t-40 89h-4q-35 -53 -102.5 -87t-137.5 -34q-129 0 -221 101.5t-92 242.5q0 211 129 374t332 163q159 0 237 -147zM588 641 q0 -84 44 -136t116 -52q111 0 188.5 111.5t77.5 232.5q0 74 -45 125t-113 51q-111 0 -189.5 -108.5t-78.5 -223.5z" />
<glyph unicode="A" horiz-adv-x="1630" d="M-18 0l651 1462h364l652 -1462h-342l-154 362h-688l-152 -362h-331zM557 592h504l-250 616z" />
<glyph unicode="B" horiz-adv-x="1705" d="M457 651v-422h551q127 0 201.5 44t74.5 171q0 100 -62.5 153.5t-168.5 53.5h-596zM457 1233v-365h573q199 0 199 187q0 92 -59.5 135t-192.5 43h-520zM150 0v1462h966q420 0 420 -364q0 -74 -17.5 -128.5t-55.5 -90t-60.5 -50t-65.5 -36.5q266 -78 267 -363 q0 -53 -13.5 -107.5t-49.5 -113.5t-90 -104.5t-143 -75t-202 -29.5h-956z" />
<glyph unicode="C" horiz-adv-x="1781" d="M1683 922h-331q-25 164 -151 258t-320 94q-221 0 -357.5 -146.5t-136.5 -422.5q0 -229 143.5 -373t370.5 -144q113 0 200 35t136 93.5t76.5 118t38.5 124.5h331q-14 -92 -44.5 -173t-95 -162t-154 -138t-228.5 -92t-313 -35q-193 0 -344.5 62.5t-245.5 170t-142 244.5 t-48 295q0 160 48 296t144 243.5t256 170t369 62.5q360 0 565.5 -163.5t232.5 -417.5z" />
<glyph unicode="D" horiz-adv-x="1744" d="M150 0v1462h788q209 0 353.5 -56t221 -161.5t108.5 -232.5t32 -295q0 -100 -18.5 -195.5t-64.5 -192t-117 -168t-184.5 -116.5t-256.5 -45h-862zM457 1233v-1004h432q94 0 166.5 19.5t142.5 69t109 153.5t39 258q0 135 -34 233.5t-81 149.5t-119 80t-123 35t-117 6h-415z " />
<glyph unicode="E" horiz-adv-x="1517" d="M150 0v1462h1269v-229h-962v-369h923v-229h-923v-406h979v-229h-1286z" />
<glyph unicode="F" horiz-adv-x="1402" d="M150 0v1462h1216v-229h-909v-369h860v-229h-860v-635h-307z" />
<glyph unicode="G" horiz-adv-x="1857" d="M1708 803v-803h-180l-43 190q-90 -109 -236.5 -170t-320.5 -61q-225 0 -394 61.5t-268.5 171t-148.5 244.5t-49 295q0 158 50 295t150.5 244.5t267 170t384.5 62.5q324 0 530.5 -145.5t230.5 -366.5h-331q-39 141 -159 212t-280 71q-270 0 -397 -148.5t-127 -404.5 q0 -270 146.5 -401.5t361.5 -131.5q227 0 347 98.5t159 286.5h-414v230h721z" />
<glyph unicode="H" horiz-adv-x="1820" d="M150 0v1462h307v-569h907v569h307v-1462h-307v664h-907v-664h-307z" />
<glyph unicode="I" horiz-adv-x="606" d="M150 0v1462h307v-1462h-307z" />
<glyph unicode="J" horiz-adv-x="1290" d="M834 528v934h307v-1020q0 -68 -12.5 -129t-48.5 -128.5t-94 -114.5t-158.5 -79t-231.5 -32q-117 0 -208 21.5t-149.5 52t-99.5 83t-61.5 95.5t-31.5 109.5t-13 105.5t-2 100h307q0 -61 2 -95t15.5 -87t38 -82t75.5 -51.5t123 -22.5q57 0 100 13.5t68.5 43t41 57.5 t22.5 74t8.5 74.5t1.5 77.5z" />
<glyph unicode="K" horiz-adv-x="1669" d="M150 0v1462h307v-678l747 678h422l-682 -594l725 -868h-416l-548 674l-248 -219v-455h-307z" />
<glyph unicode="L" horiz-adv-x="1366" d="M150 0v1462h307v-1220h889v-242h-1196z" />
<glyph unicode="M" horiz-adv-x="2199" d="M150 0v1462h442l512 -1134l508 1134h438v-1462h-289l13 1208h-5l-540 -1208h-262l-537 1208h-4l12 -1208h-288z" />
<glyph unicode="N" horiz-adv-x="1820" d="M150 0v1462h352l870 -1097h4v1097h295v-1462h-346l-876 1098h-5v-1098h-294z" />
<glyph unicode="O" horiz-adv-x="1855" d="M928 188q254 0 397 149.5t143 393.5t-143 393.5t-397 149.5t-397.5 -149.5t-143.5 -393.5t143.5 -393.5t397.5 -149.5zM927.5 -41q-225.5 0 -394 61.5t-268 171t-148.5 244.5t-49 295t49 295t148.5 244.5t268 171t394 61.5t394.5 -61.5t268.5 -171t148.5 -244.5t49 -295 t-49 -295t-148.5 -244.5t-268.5 -171t-394.5 -61.5z" />
<glyph unicode="P" horiz-adv-x="1593" d="M150 0v1462h901q131 0 226 -36.5t147.5 -102.5t77 -143.5t24.5 -171.5q0 -184 -121 -317.5t-350 -133.5h-598v-557h-307zM457 1233v-447h493q137 0 203 48.5t66 173.5q0 225 -246 225h-516z" />
<glyph unicode="Q" horiz-adv-x="1855" d="M1118 217l-135 117l145 168l195 -166q145 145 145 395q0 244 -143 393.5t-397 149.5t-397.5 -149.5t-143.5 -393.5t143.5 -393.5t397.5 -149.5q120 0 190 29zM1595 -193l-258 222q-170 -70 -409 -70q-225 0 -394 61.5t-268.5 171t-148.5 244.5t-49 295t49 295 t148.5 244.5t268 171t394 61.5t394.5 -61.5t268.5 -171t148.5 -244.5t49 -295q0 -377 -246 -584l201 -170z" />
<glyph unicode="R" horiz-adv-x="1669" d="M457 807h530q135 0 198.5 48t63.5 167q0 211 -262 211h-530v-426zM150 0v1462h925q494 0 494 -397q0 -137 -66.5 -227t-175.5 -125v-4q121 -27 167 -125.5t46 -270.5q0 -229 62 -313h-332q-37 68 -37 221q0 178 -50 267.5t-204 89.5h-522v-578h-307z" />
<glyph unicode="S" horiz-adv-x="1517" d="M72 1051q0 231 178 341.5t467 110.5q68 0 130 -5t145 -20.5t151.5 -48t133 -82t104.5 -128t51 -181.5h-332q-8 98 -99.5 167t-269.5 69q-340 0 -340 -201q0 -70 60.5 -110.5t157 -58t212 -30t231 -36t212 -63.5t157 -127t60.5 -214q0 -135 -64.5 -232.5t-172 -147.5 t-223.5 -72.5t-243 -22.5q-731 0 -741 514h332q12 -285 419 -285q156 0 258.5 52.5t102.5 162.5q0 74 -59.5 118t-154.5 64.5t-210 35t-229.5 38t-210 63.5t-154.5 124t-59 205z" />
<glyph unicode="T" horiz-adv-x="1404" d="M549 0v1233h-549v229h1405v-229h-549v-1233h-307z" />
<glyph unicode="U" horiz-adv-x="1705" d="M137 629v833h307v-825q0 -55 1 -89t9.5 -87t24 -86t45 -73t71.5 -61.5t107.5 -37t149.5 -15.5t149.5 15.5t107.5 38t72.5 61.5t46 72t24 86t9.5 87t1 89v825h307v-833q0 -70 -2 -115t-16.5 -123t-40 -129t-79 -113.5t-127 -100.5t-189.5 -63.5t-263 -25.5 q-145 0 -261 25.5t-189.5 62.5t-127 99.5t-79 114.5t-40 130t-16.5 123t-2 115z" />
<glyph unicode="V" horiz-adv-x="1554" d="M618 0l-651 1462h344l477 -1171l467 1171h332l-643 -1462h-326z" />
<glyph unicode="W" horiz-adv-x="2351" d="M473 0l-485 1462h331l330 -1134h4l365 1134h319l367 -1134h4l336 1134h319l-491 -1462h-332l-364 1122h-5l-366 -1122h-332z" />
<glyph unicode="X" horiz-adv-x="1517" d="M-25 0l596 754l-557 708h383l365 -508l379 508h370l-567 -708l598 -754h-389l-397 539l-402 -539h-379z" />
<glyph unicode="Y" horiz-adv-x="1556" d="M625 0v557l-639 905h374l418 -651l418 651h375l-639 -905v-557h-307z" />
<glyph unicode="Z" d="M31 0v223l1007 1010h-938v229h1342v-223l-998 -997h1004v-242h-1417z" />
<glyph unicode="[" horiz-adv-x="872" d="M213 -389v1851h561v-205h-303v-1441h303v-205h-561z" />
<glyph unicode="\" horiz-adv-x="831" d="M610 -41l-622 1544h233l623 -1544h-234z" />
<glyph unicode="]" horiz-adv-x="872" d="M401 -184v1441h-303v205h561v-1851h-561v205h303z" />
<glyph unicode="^" horiz-adv-x="1228" d="M901 590l-287 586l-286 -586h-205l407 827h168l408 -827h-205z" />
<glyph unicode="_" horiz-adv-x="1024" d="M1024 -256h-1024v102h1024v-102z" />
<glyph unicode="`" horiz-adv-x="493" d="M236 1518l182 -291h-244l-287 291h349z" />
<glyph unicode="a" horiz-adv-x="1441" d="M997 436v105q-90 -37 -370 -68q-156 -18 -210.5 -54t-54.5 -110q0 -170 228 -170q66 0 130 13.5t129.5 44t106.5 93t41 146.5zM1280 762v-514q0 -61 61 -62q70 0 93 7v-199q-133 -25 -201 -25q-193 0 -213 140q-150 -150 -510 -150q-213 0 -327.5 89t-114.5 251 q0 61 18 111.5t45 84t73 59.5t82 40t95 24.5t89 14.5t85 8q109 10 174.5 17.5t120.5 16.5t81.5 17t45 21.5t23 28t4.5 36.5q0 156 -308 156q-283 0 -297 -180h-276q29 203 174 287.5t399 84.5q162 0 278 -25.5t174 -60t90 -91t37 -94.5t5 -93z" />
<glyph unicode="b" d="M115 0v1487h282v-557h4q119 184 416 184q150 0 266.5 -51t186 -135t105.5 -183.5t36 -205.5q0 -109 -36 -209.5t-105.5 -184.5t-186 -135t-266.5 -51q-154 0 -274.5 65.5t-141.5 125.5h-4v-150h-282zM750 897q-184 0 -274.5 -103.5t-90.5 -254.5q0 -156 90 -259.5 t275 -103.5q188 0 277 103.5t89 259.5q0 152 -90 255t-276 103z" />
<glyph unicode="c" horiz-adv-x="1402" d="M1335 705h-295q-16 88 -99 146t-202 58q-186 0 -281.5 -106.5t-95.5 -259.5q0 -156 87.5 -261.5t259.5 -105.5q154 0 220 54.5t118 185.5h294q-16 -106 -61 -189.5t-108.5 -130.5t-125 -77.5t-133 -42t-106.5 -14.5t-68 -3q-340 0 -505.5 167t-165.5 417q0 266 180 424.5 t491 158.5q59 0 121 -8t142.5 -35.5t145 -70.5t118 -123t69.5 -184z" />
<glyph unicode="d" d="M1364 1487v-1487h-283v150h-4q-20 -59 -141 -125t-274 -66q-150 0 -266.5 51t-186.5 135t-105.5 184.5t-35.5 209.5q0 106 35.5 205.5t105.5 183.5t186.5 135t266.5 51q297 0 415 -184h4v557h283zM362 539q0 -156 89.5 -259.5t277.5 -103.5q184 0 274.5 103.5t90.5 259.5 q0 152 -90.5 255t-274.5 103q-186 0 -276.5 -103t-90.5 -255z" />
<glyph unicode="e" d="M375 651h729q-14 102 -80 169t-137.5 90.5t-149.5 23.5q-121 0 -225 -66.5t-137 -216.5zM1399 471h-1024q6 -117 93 -212t275 -95q131 0 204 40t120 115h307q-180 -360 -622 -360q-342 0 -507 166t-165 407q0 270 181 432t472 162q174 0 306 -50t209 -138t114 -194.5 t37 -231.5v-41z" />
<glyph unicode="f" horiz-adv-x="757" d="M201 0v881h-224v204h224v140q0 55 10 96t41 87t100.5 70.5t173.5 24.5q166 0 254 -8v-205q-41 8 -145 8q-94 0 -123 -26.5t-29 -102.5v-84h297v-204h-297v-881h-282z" />
<glyph unicode="g" horiz-adv-x="1517" d="M1112 1090h283v-1053q0 -213 -155 -350.5t-490 -137.5q-608 0 -637 355h295q18 -96 101 -129t232 -33q115 0 194 27.5t114.5 78t49 98.5t13.5 109v131h-6q-182 -174 -442 -174q-113 0 -216.5 30t-192.5 92.5t-142.5 172t-53.5 254.5q0 229 154 391t449 162 q164 0 280.5 -49t165.5 -135h4v160zM354 565q0 -139 94.5 -237.5t299.5 -98.5q162 0 263 94.5t101 245.5q0 92 -39 161t-101.5 102.5t-125 49t-123.5 15.5q-160 0 -264.5 -93.5t-104.5 -238.5z" />
<glyph unicode="h" horiz-adv-x="1404" d="M115 0v1487h282v-565h4q152 193 428 192q94 0 172 -18.5t145.5 -59.5t105.5 -116.5t38 -182.5v-737h-282v647q0 250 -273 250q-131 0 -234.5 -78t-103.5 -235v-584h-282z" />
<glyph unicode="i" horiz-adv-x="528" d="M123 1257v230h283v-230h-283zM123 0v1085h283v-1085h-283z" />
<glyph unicode="j" horiz-adv-x="528" d="M123 1257v230h283v-230h-283zM123 -41v1126h283v-1134q0 -199 -80 -282t-291 -83q-43 0 -141 4v217q61 -4 98 -4q68 0 99.5 33t31.5 123z" />
<glyph unicode="k" horiz-adv-x="1290" d="M115 0v1487h282v-836l502 434h399l-501 -409l544 -676h-380l-386 496l-178 -146v-350h-282z" />
<glyph unicode="l" horiz-adv-x="528" d="M123 0v1487h283v-1487h-283z" />
<glyph unicode="m" horiz-adv-x="2199" d="M958 0v647q0 53 -7 88t-30.5 77t-81 63.5t-147.5 21.5q-43 0 -89 -13.5t-95 -43t-80 -91t-31 -145.5v-604h-282v1085h282v-163h4q152 193 428 192q297 0 383 -201q143 201 441 201q59 0 112.5 -8t113.5 -35t104.5 -67.5t73 -113.5t28.5 -169v-721h-283v647q0 53 -7 88 t-30.5 77t-81 63.5t-147.5 21.5q-43 0 -89 -13.5t-95 -43t-80 -91t-31 -145.5v-604h-283z" />
<glyph unicode="n" horiz-adv-x="1404" d="M115 0v1085h282v-163h4q152 193 428 192q94 0 172 -18.5t145.5 -59.5t105.5 -116.5t38 -182.5v-737h-282v647q0 250 -273 250q-131 0 -234.5 -78t-103.5 -235v-584h-282z" />
<glyph unicode="o" d="M68 543q0 248 165.5 415.5t505.5 167.5t506 -167.5t166 -415.5q0 -250 -166 -417t-506 -167t-505.5 167t-165.5 417zM362 542.5q0 -155.5 93.5 -261t284 -105.5t283.5 105.5t93 261t-93 261t-283.5 105.5t-284 -105.5t-93.5 -261z" />
<glyph unicode="p" d="M115 -414v1499h282v-155h4q119 184 416 184q150 0 266.5 -51t186 -135t105.5 -183.5t36 -205.5q0 -109 -36 -209.5t-105.5 -184.5t-186 -135t-266.5 -51q-154 0 -274.5 65.5t-141.5 125.5h-4v-564h-282zM750 897q-184 0 -274.5 -103.5t-90.5 -254.5q0 -156 90 -259.5 t275 -103.5q188 0 277 103.5t89 259.5q0 152 -90 255t-276 103z" />
<glyph unicode="q" d="M1081 930v155h283v-1499h-283v564h-4q-20 -59 -141 -125t-274 -66q-150 0 -266.5 51t-186.5 135t-105.5 184.5t-35.5 209.5q0 106 35.5 205.5t105.5 183.5t186.5 135t266.5 51q297 0 415 -184h4zM362 539q0 -156 89.5 -259.5t277.5 -103.5q184 0 274.5 103.5t90.5 259.5 q0 152 -90.5 255t-274.5 103q-186 0 -276.5 -103t-90.5 -255z" />
<glyph unicode="r" horiz-adv-x="948" d="M115 0v1085h282v-211h4q152 240 410 240q47 0 113 -10v-279q-86 27 -181 27q-59 0 -115.5 -16.5t-110.5 -51t-87 -102.5t-33 -158v-524h-282z" />
<glyph unicode="s" horiz-adv-x="1327" d="M59 340h308q2 -76 59 -121t115.5 -56t124.5 -11q121 0 208 33.5t87 105.5q0 66 -63.5 93.5t-289.5 59.5q-115 14 -184.5 27.5t-139 37t-106.5 57.5t-59.5 85t-22.5 125q0 88 40 154.5t97.5 102.5t136.5 58.5t141 28.5t128 6t125 -4t147 -26.5t151.5 -59.5t112 -109.5 t52.5 -172.5h-295q-25 180 -307 180q-113 0 -179.5 -39t-66.5 -86t19.5 -68.5t78 -37t201.5 -35.5q131 -18 200.5 -30.5t157.5 -38.5t130 -57.5t72 -85t30 -126.5q0 -195 -163 -283t-437 -88q-80 0 -152 7t-158 32t-148.5 63.5t-105.5 110.5t-45 168z" />
<glyph unicode="t" horiz-adv-x="833" d="M203 303v578h-226v204h226v336h282v-336h295v-204h-295v-496q0 -106 17.5 -149t85 -43t203.5 4v-205q-121 -16 -218 -17q-125 0 -201.5 20.5t-112.5 69t-46 99.5t-10 139z" />
<glyph unicode="u" horiz-adv-x="1404" d="M115 360v725h282v-618q0 -141 57.5 -216t223.5 -75q117 0 223.5 79t106.5 234v596h282v-1085h-282v152h-4q-152 -193 -429 -193q-460 0 -460 401z" />
<glyph unicode="v" horiz-adv-x="1290" d="M494 0l-496 1085h319l324 -806l336 806h319l-495 -1085h-307z" />
<glyph unicode="w" horiz-adv-x="2011" d="M420 0l-412 1085h307l279 -794h4l260 794h295l260 -794h4l279 794h307l-412 -1085h-319l-264 754h-4l-265 -754h-319z" />
<glyph unicode="x" horiz-adv-x="1327" d="M-16 0l487 559l-453 526h365l279 -352l284 352h365l-457 -526l489 -559h-376l-305 385l-314 -385h-364z" />
<glyph unicode="y" horiz-adv-x="1251" d="M485 18l-505 1067h307l348 -776l340 776h301l-592 -1278q-66 -137 -139.5 -179t-251.5 -42q-66 0 -176 4v217q45 -4 141 -4q123 0 164 84z" />
<glyph unicode="z" horiz-adv-x="1251" d="M45 0v205l731 663h-692v217h1096v-192l-746 -676h772v-217h-1161z" />
<glyph unicode="{" horiz-adv-x="872" d="M764 -184v-205h-238q-84 0 -157.5 70.5t-73.5 189.5v348q0 96 -54.5 155.5t-119.5 59.5v205q66 0 120 58.5t54 154.5v350q0 119 73.5 189.5t157.5 70.5h238v-205h-109q-102 0 -102 -157v-305q0 -211 -186 -256v-4q186 -45 186 -256v-306q0 -158 102 -157h109z" />
<glyph unicode="|" horiz-adv-x="454" d="M119 -41v1544h217v-1544h-217z" />
<glyph unicode="}" horiz-adv-x="872" d="M109 1257v205h237q84 0 158 -70.5t74 -189.5v-348q0 -96 54 -155.5t120 -59.5v-205q-66 0 -120 -58.5t-54 -154.5v-350q0 -119 -74 -189.5t-158 -70.5h-237v205h108q102 0 102 157v306q0 211 187 256v4q-186 45 -187 256v305q0 158 -102 157h-108z" />
<glyph unicode="~" horiz-adv-x="1228" d="M1008 694l86 -168q-41 -57 -70 -88.5t-79 -59.5t-107 -28q-76 0 -215.5 72t-229.5 72q-104 0 -172 -152l-86 168q94 176 256 176q78 0 238 -70q143 -74 198 -73q14 0 27.5 3t27 9t22.5 12t22 19l18 18q6 6 17.5 22.5t15.5 21.5t16.5 23.5t14.5 22.5z" />
<glyph unicode="&#xa1;" horiz-adv-x="720" d="M201 795v290h319v-290h-319zM201 -377v391l57 643h205l57 -643v-391h-319z" />
<glyph unicode="&#xa2;" horiz-adv-x="1515" d="M827 1292v-166q61 -4 120 -14t135.5 -39t136 -73t107.5 -120.5t65 -174.5h-295q-14 80 -87 137t-182 67v-725q66 6 113 27.5t80 64.5t46 68t38 80h289q-16 -117 -71.5 -206t-121 -135t-145.5 -73.5t-132.5 -35t-95.5 -7.5v-213h-106v213q-305 23 -451.5 187.5 t-146.5 402.5q0 223 147.5 382t450.5 181v172h106zM721 184v719q-154 -23 -228.5 -123t-74.5 -231q0 -316 303 -365z" />
<glyph unicode="&#xa3;" horiz-adv-x="1515" d="M98 629v155h113q-51 104 -51 203q0 145 91 253t225 159t288 51q104 0 193.5 -13.5t173 -49t142 -90t93.5 -141.5t35 -200h-307q-8 131 -89 198t-222.5 67t-228.5 -69t-87 -179q0 -82 51 -189h412v-155h-355q12 -59 13 -131q0 -78 -46 -148.5t-116 -109.5v-4q94 43 201 43 q66 0 196.5 -29t198.5 -29q147 0 315 96l84 -233q-70 -51 -177 -84t-222 -33q-63 0 -244.5 41t-261.5 41q-178 0 -301 -82l-121 207q211 123 211 303q0 70 -37 152h-170z" />
<glyph unicode="&#xa4;" horiz-adv-x="1228" d="M311 709q0 -127 88 -215t215 -88t215.5 88t88.5 215t-88.5 215t-215.5 88t-215 -88t-88 -215zM74 1104l145 145l117 -116q125 84 278 84q158 0 279 -84l117 116l145 -145l-117 -117q84 -121 84 -278q0 -154 -84 -279l117 -117l-145 -145l-117 117q-121 -84 -279 -84 q-154 0 -278 84l-117 -117l-145 145l116 117q-84 121 -84 278.5t84 278.5z" />
<glyph unicode="&#xa5;" horiz-adv-x="1515" d="M610 0v287h-356v155h356v115l-39 57h-317v156h209l-455 647h365l385 -606l385 606h364l-454 -647h209v-156h-318l-39 -57v-115h357v-155h-357v-287h-295z" />
<glyph unicode="&#xa6;" horiz-adv-x="454" d="M119 940v563h217v-563h-217zM119 -41v563h217v-563h-217z" />
<glyph unicode="&#xa7;" horiz-adv-x="1517" d="M975 645l-522 180q-115 -61 -115 -166q0 -29 15.5 -54t36 -42.5t54 -34t58 -25.5l61.5 -22l49 -16l453 -162q102 76 102 160q1 119 -192 182zM170 23h295q41 -207 303 -207q266 0 266 147q0 41 -27.5 72t-50 42t-73.5 32l-15 6l-477 164q-154 55 -232.5 137t-78.5 227 q0 106 57.5 185t159.5 108q-94 76 -94 207q0 127 84 212t199.5 116.5t254.5 31.5q231 0 389 -96t170 -299h-294q-4 80 -52.5 124t-103.5 55t-135 11q-94 0 -162 -35.5t-68 -113.5q0 -31 17.5 -56.5t54.5 -44t57 -25.5l64 -22l471 -153q127 -41 208 -126t81 -216 q0 -199 -209 -303q57 -43 78.5 -86t21.5 -115q0 -96 -39 -169t-97 -114t-138 -66.5t-146.5 -33.5t-136.5 -8q-534 0 -602 412z" />
<glyph unicode="&#xa8;" horiz-adv-x="493" d="M373 1257v230h282v-230h-282zM-162 1257v230h283v-230h-283z" />
<glyph unicode="&#xa9;" horiz-adv-x="1638" d="M1032 598h166q-27 -152 -126 -240t-236 -88q-193 0 -310.5 132.5t-117.5 332.5q0 205 113.5 335t307.5 130q143 0 241.5 -84t121.5 -235h-160q-12 76 -67.5 119.5t-143.5 43.5q-123 0 -190.5 -87t-67.5 -222q0 -131 73 -220t191 -89q182 0 205 172zM248 731 q0 -262 165 -433t406 -171q238 0 405 172t167 432t-167 432t-405 172q-242 0 -406.5 -171t-164.5 -433zM68 731q0 336 222 554t529 218t529.5 -218t222.5 -554t-222.5 -554t-529.5 -218t-529 218t-222 554z" />
<glyph unicode="&#xaa;" horiz-adv-x="937" d="M631 1040v62q-66 -31 -230 -39q-102 -8 -143 -31.5t-41 -66.5q0 -102 148 -103q59 0 114.5 13.5t103.5 56t48 108.5zM811 1231v-309q0 -37 43 -37h31q23 0 28 2v-119q-90 -14 -131 -14q-125 0 -139 84q-100 -84 -330 -84q-139 0 -213.5 53t-74.5 151q0 51 23.5 89 t52 57.5t82 34t80 17.5t79.5 7q205 18 247 28.5t42 49.5q0 94 -197 94q-184 0 -192 -112h-181q18 127 114.5 177t258.5 50q131 0 214 -20.5t115 -59.5t40 -67.5t8 -71.5z" />
<glyph unicode="&#xab;" horiz-adv-x="1214" d="M645 446v263l385 288v-241l-242 -178l242 -175v-241zM156 446v263l385 288v-241l-242 -178l242 -175v-241z" />
<glyph unicode="&#xac;" horiz-adv-x="1228" d="M928 219v424h-832v205h1037v-629h-205z" />
<glyph unicode="&#xad;" horiz-adv-x="985" d="M131 457v241h723v-241h-723z" />
<glyph unicode="&#xae;" horiz-adv-x="1638" d="M248 731q0 -262 165 -433t406 -171q238 0 405 172t167 432t-167 432t-405 172q-242 0 -406.5 -171t-164.5 -433zM68 731q0 336 222 554t529 218t529.5 -218t222.5 -554t-222.5 -554t-529.5 -218t-529 218t-222 554zM682 1018v-240h145q88 0 133.5 23.5t45.5 101.5 q0 115 -177 115h-147zM526 299v838h320q158 0 236.5 -57.5t78.5 -188.5q0 -106 -58.5 -161.5t-152.5 -63.5l226 -367h-168l-211 360h-115v-360h-156z" />
<glyph unicode="&#xaf;" horiz-adv-x="493" d="M-201 1282v180h895v-180h-895z" />
<glyph unicode="&#xb0;" horiz-adv-x="819" d="M244 1157q0 -70 48 -118t117.5 -48t117.5 48t48 118t-48 118t-117.5 48t-117.5 -48t-48 -118zM117 1157q0 123 85 208t207.5 85t207.5 -85t85 -208t-85 -208t-207.5 -85t-207.5 85t-85 208z" />
<glyph unicode="&#xb1;" horiz-adv-x="1228" d="M96 0v180h1037v-180h-1037zM96 557v180h428v299h181v-299h428v-180h-428v-299h-181v299h-428z" />
<glyph unicode="&#xb2;" horiz-adv-x="987" d="M903 586h-837q0 119 64.5 203.5t156.5 129t184 79t156.5 75.5t64.5 94q0 61 -56 94t-122 33q-98 0 -154.5 -46t-64.5 -126h-229q0 162 114.5 245t300.5 83q209 0 325 -70.5t116 -199.5q0 -104 -74 -175t-166 -101t-190.5 -68.5t-131.5 -81.5h543v-168z" />
<glyph unicode="&#xb3;" horiz-adv-x="987" d="M383 961v143h119q160 0 160 84q0 41 -49.5 73.5t-145.5 32.5q-84 0 -129 -41t-51 -94h-205q12 154 127 222.5t287 68.5q203 0 293 -71.5t90 -178.5q0 -115 -144 -156v-4q86 -18 135.5 -71.5t49.5 -124.5q0 -33 -7.5 -64.5t-35 -73.5t-72.5 -72t-129 -51.5t-197 -21.5 q-82 0 -150.5 14.5t-133 46t-102.5 94t-38 150.5h205q4 -76 65.5 -112.5t147.5 -36.5q90 0 153.5 34.5t63.5 90.5q0 45 -44 82t-159 37h-104z" />
<glyph unicode="&#xb4;" horiz-adv-x="493" d="M76 1227l182 291h348l-287 -291h-243z" />
<glyph unicode="&#xb5;" horiz-adv-x="1404" d="M115 -414v1499h282v-618q0 -141 57.5 -216t223.5 -75q117 0 223.5 79t106.5 234v596h282v-1085h-282v152h-4q-70 -88 -176.5 -140.5t-211.5 -52.5q-70 0 -131 23.5t-88 54.5v-451h-282z" />
<glyph unicode="&#xb6;" horiz-adv-x="1228" d="M485 -389v1077q-205 2 -323.5 106.5t-118.5 280.5q0 387 483 387h580v-1851h-205v1671h-211v-1671h-205z" />
<glyph unicode="&#xb7;" horiz-adv-x="720" d="M178 596q0 74 54.5 128t127.5 54q72 0 127.5 -54t55.5 -128q0 -72 -55.5 -127t-127.5 -55q-74 0 -128 56t-54 126z" />
<glyph unicode="&#xb8;" horiz-adv-x="493" d="M78 -168l104 168h117l-66 -104q37 6 60 6q207 0 207 -148q0 -82 -78 -125t-189 -43q-131 0 -239 31l31 90q80 -27 147 -26q111 0 111 63q0 29 -22.5 46t-53.5 17q-43 0 -92 -16z" />
<glyph unicode="&#xb9;" horiz-adv-x="665" d="M276 586v553h-264v155h56q236 0 268 156h158v-864h-218z" />
<glyph unicode="&#xba;" horiz-adv-x="960" d="M43 1104q0 145 108.5 245.5t329.5 100.5t329 -100.5t108 -245.5q0 -150 -106.5 -250t-330.5 -100q-221 0 -329.5 100t-108.5 250zM248 1104q0 -84 58.5 -145.5t174.5 -61.5q115 0 173.5 61.5t58.5 145.5q0 82 -58.5 142.5t-173 60.5t-174 -60.5t-59.5 -142.5z" />
<glyph unicode="&#xbb;" horiz-adv-x="1214" d="M569 709v-263l-385 -286v241l242 177l-242 172v241zM1059 709v-263l-385 -286v241l241 177l-241 172v241z" />
<glyph unicode="&#xbc;" horiz-adv-x="2275" d="M276 586v553h-264v155h56q236 0 268 156h158v-864h-218zM506 -33l854 1483h192l-854 -1483h-192zM1300 182v162l506 520h248v-514h148v-168h-148v-182h-217v182h-537zM1837 350v334l-334 -334h334z" />
<glyph unicode="&#xbd;" horiz-adv-x="2275" d="M2132 0h-838q0 119 64.5 204t157 129t184.5 78.5t156.5 75.5t64.5 95q0 61 -56.5 94t-121.5 33q-98 0 -154.5 -46.5t-64.5 -125.5h-230q0 162 115 244.5t301 82.5q209 0 324.5 -70.5t115.5 -199.5q0 -104 -73.5 -175t-165.5 -100.5t-190.5 -68.5t-131.5 -82h543v-168z M276 586v553h-264v155h56q236 0 268 156h158v-864h-218zM424 -33l854 1483h192l-854 -1483h-192z" />
<glyph unicode="&#xbe;" horiz-adv-x="2275" d="M629 -33l854 1487h192l-854 -1487h-192zM383 961v143h119q160 0 160 84q0 41 -49.5 73.5t-145.5 32.5q-84 0 -129 -41t-51 -94h-205q12 154 127 222.5t287 68.5q203 0 293 -71.5t90 -178.5q0 -115 -144 -156v-4q86 -18 135.5 -71.5t49.5 -124.5q0 -33 -7.5 -64.5 t-35 -73.5t-72.5 -72t-129 -51.5t-197 -21.5q-82 0 -150.5 14.5t-133 46t-102.5 94t-38 150.5h205q4 -76 65.5 -112.5t147.5 -36.5q90 0 153.5 34.5t63.5 90.5q0 45 -44 82t-159 37h-104zM1300 182v162l506 520h248v-514h148v-168h-148v-182h-217v182h-537zM1837 350v334 l-334 -334h334z" />
<glyph unicode="&#xbf;" horiz-adv-x="1441" d="M604 795v290h320v-290h-320zM623 659h282v-32q0 -78 -33.5 -140.5t-85 -101.5t-111.5 -80l-112 -76q-51 -35 -85 -87t-34 -115q0 -113 92.5 -162t213 -49t211 67.5t94.5 212.5h295q-10 -244 -165 -370.5t-446 -126.5q-164 0 -285.5 39.5t-188 107.5t-97.5 142.5 t-31 156.5q0 100 50.5 179t122 128t142 92t121 97.5t50.5 117.5z" />
<glyph unicode="&#xc0;" horiz-adv-x="1630" d="M-18 0l651 1462h364l652 -1462h-342l-154 362h-688l-152 -362h-331zM557 592h504l-250 616zM793 1866l182 -291h-244l-287 291h349z" />
<glyph unicode="&#xc1;" horiz-adv-x="1630" d="M-18 0l651 1462h364l652 -1462h-342l-154 362h-688l-152 -362h-331zM557 592h504l-250 616zM645 1575l182 291h349l-287 -291h-244z" />
<glyph unicode="&#xc2;" horiz-adv-x="1630" d="M-18 0l651 1462h364l652 -1462h-342l-154 362h-688l-152 -362h-331zM557 592h504l-250 616zM991 1866l283 -291h-283l-172 170l-170 -170h-282l282 291h342z" />
<glyph unicode="&#xc3;" horiz-adv-x="1630" d="M-18 0l651 1462h364l652 -1462h-342l-154 362h-688l-152 -362h-331zM557 592h504l-250 616zM514 1589h-149q49 266 284 266q51 0 194.5 -45t186.5 -45q45 0 64.5 20.5t33.5 69.5h148q-31 -135 -62 -184q-59 -86 -186 -86q-72 0 -224.5 45t-191.5 45q-73 0 -98 -86z" />
<glyph unicode="&#xc4;" horiz-adv-x="1630" d="M-18 0l651 1462h364l652 -1462h-342l-154 362h-688l-152 -362h-331zM557 592h504l-250 616zM942 1606v229h283v-229h-283zM408 1606v229h282v-229h-282z" />
<glyph unicode="&#xc5;" horiz-adv-x="1630" d="M-18 0l651 1462h364l652 -1462h-342l-154 362h-688l-152 -362h-331zM557 592h504l-250 616zM684 1792q0 -53 38 -91t91 -38t91 38t38 91t-38 91t-91 38t-91 -38t-38 -91zM565 1792q0 102 73 175t175 73t175 -73t73 -175t-73 -175t-175 -73t-175 73t-73 175z" />
<glyph unicode="&#xc6;" horiz-adv-x="2314" d="M1087 598v635h-98l-358 -635h456zM-47 0l858 1462h1407v-229h-848v-369h823v-229h-823v-406h862v-229h-1145v381h-575l-227 -381h-332z" />
<glyph unicode="&#xc7;" horiz-adv-x="1781" d="M1683 922h-331q-25 164 -151 258t-320 94q-221 0 -357.5 -146.5t-136.5 -422.5q0 -229 143.5 -373t370.5 -144q113 0 200 35t136 93.5t76.5 118t38.5 124.5h331q-59 -408 -458 -547q-139 -47 -330 -53l-39 -63q37 6 59 6q207 0 207 -148q0 -82 -77.5 -125t-188.5 -43 q-131 0 -240 31l31 90q80 -27 148 -26q111 0 110 63q0 29 -22.5 46t-53.5 17q-43 0 -92 -16l-37 41l80 129q-156 8 -278 59q-213 92 -323.5 280.5t-110.5 430.5q0 160 48 296t144 243.5t256 170t369 62.5q360 0 565.5 -163.5t232.5 -417.5z" />
<glyph unicode="&#xc8;" horiz-adv-x="1517" d="M150 0v1462h1269v-229h-962v-369h923v-229h-923v-406h979v-229h-1286zM795 1866l182 -291h-244l-287 291h349z" />
<glyph unicode="&#xc9;" horiz-adv-x="1517" d="M150 0v1462h1269v-229h-962v-369h923v-229h-923v-406h979v-229h-1286zM672 1575l182 291h348l-287 -291h-243z" />
<glyph unicode="&#xca;" horiz-adv-x="1517" d="M150 0v1462h1269v-229h-962v-369h923v-229h-923v-406h979v-229h-1286zM958 1866l283 -291h-283l-172 170l-170 -170h-282l282 291h342z" />
<glyph unicode="&#xcb;" horiz-adv-x="1517" d="M150 0v1462h1269v-229h-962v-369h923v-229h-923v-406h979v-229h-1286zM907 1606v229h283v-229h-283zM373 1606v229h282v-229h-282z" />
<glyph unicode="&#xcc;" horiz-adv-x="606" d="M150 0v1462h307v-1462h-307zM272 1866l183 -291h-244l-287 291h348z" />
<glyph unicode="&#xcd;" horiz-adv-x="606" d="M150 0v1462h307v-1462h-307zM152 1575l182 291h348l-287 -291h-243z" />
<glyph unicode="&#xce;" horiz-adv-x="606" d="M150 0v1462h307v-1462h-307zM473 1866l283 -291h-283l-172 170l-170 -170h-283l283 291h342z" />
<glyph unicode="&#xcf;" horiz-adv-x="606" d="M150 0v1462h307v-1462h-307zM430 1606v229h283v-229h-283zM-104 1606v229h282v-229h-282z" />
<glyph unicode="&#xd0;" horiz-adv-x="1744" d="M457 647v-418h499q61 0 121 19.5t124.5 69t104.5 155t40 256.5q0 139 -37 240.5t-84 150.5t-120 77t-117 32t-103 4h-428v-369h403v-217h-403zM150 0v647h-150v217h150v598h825q678 0 678 -745q0 -100 -18.5 -195.5t-64.5 -192t-117 -168t-184.5 -116.5t-256.5 -45h-862z " />
<glyph unicode="&#xd1;" horiz-adv-x="1820" d="M150 0v1462h352l870 -1097h4v1097h295v-1462h-346l-876 1098h-5v-1098h-294zM614 1589h-149q49 266 285 266q51 0 194 -45t186 -45q45 0 64.5 20.5t34.5 69.5h147q-31 -135 -61 -184q-59 -86 -187 -86q-72 0 -224 45t-191 45q-74 0 -99 -86z" />
<glyph unicode="&#xd2;" horiz-adv-x="1855" d="M928 188q254 0 397 149.5t143 393.5t-143 393.5t-397 149.5t-397.5 -149.5t-143.5 -393.5t143.5 -393.5t397.5 -149.5zM927.5 -41q-225.5 0 -394 61.5t-268 171t-148.5 244.5t-49 295t49 295t148.5 244.5t268 171t394 61.5t394.5 -61.5t268.5 -171t148.5 -244.5t49 -295 t-49 -295t-148.5 -244.5t-268.5 -171t-394.5 -61.5zM918 1866l182 -291h-244l-287 291h349z" />
<glyph unicode="&#xd3;" horiz-adv-x="1855" d="M928 188q254 0 397 149.5t143 393.5t-143 393.5t-397 149.5t-397.5 -149.5t-143.5 -393.5t143.5 -393.5t397.5 -149.5zM927.5 -41q-225.5 0 -394 61.5t-268 171t-148.5 244.5t-49 295t49 295t148.5 244.5t268 171t394 61.5t394.5 -61.5t268.5 -171t148.5 -244.5t49 -295 t-49 -295t-148.5 -244.5t-268.5 -171t-394.5 -61.5zM793 1575l182 291h348l-287 -291h-243z" />
<glyph unicode="&#xd4;" horiz-adv-x="1855" d="M928 188q254 0 397 149.5t143 393.5t-143 393.5t-397 149.5t-397.5 -149.5t-143.5 -393.5t143.5 -393.5t397.5 -149.5zM927.5 -41q-225.5 0 -394 61.5t-268 171t-148.5 244.5t-49 295t49 295t148.5 244.5t268 171t394 61.5t394.5 -61.5t268.5 -171t148.5 -244.5t49 -295 t-49 -295t-148.5 -244.5t-268.5 -171t-394.5 -61.5zM1102 1866l282 -291h-282l-172 170l-170 -170h-283l283 291h342z" />
<glyph unicode="&#xd5;" horiz-adv-x="1855" d="M928 188q254 0 397 149.5t143 393.5t-143 393.5t-397 149.5t-397.5 -149.5t-143.5 -393.5t143.5 -393.5t397.5 -149.5zM927.5 -41q-225.5 0 -394 61.5t-268 171t-148.5 244.5t-49 295t49 295t148.5 244.5t268 171t394 61.5t394.5 -61.5t268.5 -171t148.5 -244.5t49 -295 t-49 -295t-148.5 -244.5t-268.5 -171t-394.5 -61.5zM627 1589h-150q49 266 285 266q51 0 194.5 -45t186.5 -45q45 0 64.5 20.5t33.5 69.5h148q-31 -135 -62 -184q-59 -86 -186 -86q-72 0 -224.5 45t-191.5 45q-73 0 -98 -86z" />
<glyph unicode="&#xd6;" horiz-adv-x="1855" d="M928 188q254 0 397 149.5t143 393.5t-143 393.5t-397 149.5t-397.5 -149.5t-143.5 -393.5t143.5 -393.5t397.5 -149.5zM927.5 -41q-225.5 0 -394 61.5t-268 171t-148.5 244.5t-49 295t49 295t148.5 244.5t268 171t394 61.5t394.5 -61.5t268.5 -171t148.5 -244.5t49 -295 t-49 -295t-148.5 -244.5t-268.5 -171t-394.5 -61.5zM1057 1606v229h282v-229h-282zM522 1606v229h283v-229h-283z" />
<glyph unicode="&#xd7;" horiz-adv-x="1228" d="M614 381l-340 -338l-145 145l338 338l-338 340l143 146l342 -340l342 340l144 -146l-338 -340l338 -338l-146 -145z" />
<glyph unicode="&#xd8;" horiz-adv-x="1855" d="M63 39l189 168q-184 199 -184 524q0 160 49 295t148.5 244.5t268 171t394.5 61.5q367 0 583 -166l199 179l82 -95l-186 -168q182 -197 182 -522q0 -160 -49 -295t-148.5 -244.5t-268.5 -171t-394 -61.5q-365 0 -584 164l-201 -180zM1382 1053l-825 -740 q137 -125 371 -125q254 0 397 149.5t143 393.5q0 191 -86 322zM475 408l825 741q-141 125 -372 125q-254 0 -397.5 -149.5t-143.5 -393.5q0 -192 88 -323z" />
<glyph unicode="&#xd9;" horiz-adv-x="1705" d="M137 629v833h307v-825q0 -55 1 -89t9.5 -87t24 -86t45 -73t71.5 -61.5t107.5 -37t149.5 -15.5t149.5 15.5t107.5 38t72.5 61.5t46 72t24 86t9.5 87t1 89v825h307v-833q0 -70 -2 -115t-16.5 -123t-40 -129t-79 -113.5t-127 -100.5t-189.5 -63.5t-263 -25.5 q-145 0 -261 25.5t-189.5 62.5t-127 99.5t-79 114.5t-40 130t-16.5 123t-2 115zM829 1866l183 -291h-244l-287 291h348z" />
<glyph unicode="&#xda;" horiz-adv-x="1705" d="M137 629v833h307v-825q0 -55 1 -89t9.5 -87t24 -86t45 -73t71.5 -61.5t107.5 -37t149.5 -15.5t149.5 15.5t107.5 38t72.5 61.5t46 72t24 86t9.5 87t1 89v825h307v-833q0 -70 -2 -115t-16.5 -123t-40 -129t-79 -113.5t-127 -100.5t-189.5 -63.5t-263 -25.5 q-145 0 -261 25.5t-189.5 62.5t-127 99.5t-79 114.5t-40 130t-16.5 123t-2 115zM723 1575l182 291h348l-286 -291h-244z" />
<glyph unicode="&#xdb;" horiz-adv-x="1705" d="M137 629v833h307v-825q0 -55 1 -89t9.5 -87t24 -86t45 -73t71.5 -61.5t107.5 -37t149.5 -15.5t149.5 15.5t107.5 38t72.5 61.5t46 72t24 86t9.5 87t1 89v825h307v-833q0 -70 -2 -115t-16.5 -123t-40 -129t-79 -113.5t-127 -100.5t-189.5 -63.5t-263 -25.5 q-145 0 -261 25.5t-189.5 62.5t-127 99.5t-79 114.5t-40 130t-16.5 123t-2 115zM1030 1866l283 -291h-283l-172 170l-170 -170h-282l282 291h342z" />
<glyph unicode="&#xdc;" horiz-adv-x="1705" d="M137 629v833h307v-825q0 -55 1 -89t9.5 -87t24 -86t45 -73t71.5 -61.5t107.5 -37t149.5 -15.5t149.5 15.5t107.5 38t72.5 61.5t46 72t24 86t9.5 87t1 89v825h307v-833q0 -70 -2 -115t-16.5 -123t-40 -129t-79 -113.5t-127 -100.5t-189.5 -63.5t-263 -25.5 q-145 0 -261 25.5t-189.5 62.5t-127 99.5t-79 114.5t-40 130t-16.5 123t-2 115zM981 1606v229h283v-229h-283zM446 1606v229h283v-229h-283z" />
<glyph unicode="&#xdd;" horiz-adv-x="1556" d="M625 0v557l-639 905h374l418 -651l418 651h375l-639 -905v-557h-307zM662 1575l182 291h348l-287 -291h-243z" />
<glyph unicode="&#xde;" horiz-adv-x="1593" d="M150 0v1462h307v-264h594q131 0 226 -37t147.5 -102.5t77 -143t24.5 -172.5q0 -184 -121 -317t-350 -133h-598v-293h-307zM457 969v-447h493q137 0 203 48t66 173q0 225 -246 226h-516z" />
<glyph unicode="&#xdf;" horiz-adv-x="1441" d="M397 979v-979h-282v1077q0 92 31.5 165t86 121t130 81t158.5 46t179 13q78 0 152 -9t152.5 -36.5t136 -69.5t95.5 -114t38 -164q0 -209 -205 -279v-4q121 -25 201 -117t80 -253q0 -231 -155 -356.5t-429 -125.5q-121 0 -188 25v205q66 -12 147 -12q330 0 330 264 q0 250 -332 250h-125v192h123q113 0 185.5 45t72.5 145.5t-74 148.5t-198 48q-100 0 -165 -22.5t-94.5 -69.5t-40 -95t-10.5 -120z" />
<glyph unicode="&#xe0;" horiz-adv-x="1441" d="M997 436v105q-90 -37 -370 -68q-156 -18 -210.5 -54t-54.5 -110q0 -170 228 -170q66 0 130 13.5t129.5 44t106.5 93t41 146.5zM1280 762v-514q0 -61 61 -62q70 0 93 7v-199q-133 -25 -201 -25q-193 0 -213 140q-150 -150 -510 -150q-213 0 -327.5 89t-114.5 251 q0 61 18 111.5t45 84t73 59.5t82 40t95 24.5t89 14.5t85 8q109 10 174.5 17.5t120.5 16.5t81.5 17t45 21.5t23 28t4.5 36.5q0 156 -308 156q-283 0 -297 -180h-276q29 203 174 287.5t399 84.5q162 0 278 -25.5t174 -60t90 -91t37 -94.5t5 -93zM696 1518l183 -291h-244 l-287 291h348z" />
<glyph unicode="&#xe1;" horiz-adv-x="1441" d="M997 436v105q-90 -37 -370 -68q-156 -18 -210.5 -54t-54.5 -110q0 -170 228 -170q66 0 130 13.5t129.5 44t106.5 93t41 146.5zM1280 762v-514q0 -61 61 -62q70 0 93 7v-199q-133 -25 -201 -25q-193 0 -213 140q-150 -150 -510 -150q-213 0 -327.5 89t-114.5 251 q0 61 18 111.5t45 84t73 59.5t82 40t95 24.5t89 14.5t85 8q109 10 174.5 17.5t120.5 16.5t81.5 17t45 21.5t23 28t4.5 36.5q0 156 -308 156q-283 0 -297 -180h-276q29 203 174 287.5t399 84.5q162 0 278 -25.5t174 -60t90 -91t37 -94.5t5 -93zM588 1227l182 291h348 l-287 -291h-243z" />
<glyph unicode="&#xe2;" horiz-adv-x="1441" d="M997 436v105q-90 -37 -370 -68q-156 -18 -210.5 -54t-54.5 -110q0 -170 228 -170q66 0 130 13.5t129.5 44t106.5 93t41 146.5zM1280 762v-514q0 -61 61 -62q70 0 93 7v-199q-133 -25 -201 -25q-193 0 -213 140q-150 -150 -510 -150q-213 0 -327.5 89t-114.5 251 q0 61 18 111.5t45 84t73 59.5t82 40t95 24.5t89 14.5t85 8q109 10 174.5 17.5t120.5 16.5t81.5 17t45 21.5t23 28t4.5 36.5q0 156 -308 156q-283 0 -297 -180h-276q29 203 174 287.5t399 84.5q162 0 278 -25.5t174 -60t90 -91t37 -94.5t5 -93zM891 1518l283 -291h-283 l-172 170l-170 -170h-283l283 291h342z" />
<glyph unicode="&#xe3;" horiz-adv-x="1441" d="M997 436v105q-90 -37 -370 -68q-156 -18 -210.5 -54t-54.5 -110q0 -170 228 -170q66 0 130 13.5t129.5 44t106.5 93t41 146.5zM1280 762v-514q0 -61 61 -62q70 0 93 7v-199q-133 -25 -201 -25q-193 0 -213 140q-150 -150 -510 -150q-213 0 -327.5 89t-114.5 251 q0 61 18 111.5t45 84t73 59.5t82 40t95 24.5t89 14.5t85 8q109 10 174.5 17.5t120.5 16.5t81.5 17t45 21.5t23 28t4.5 36.5q0 156 -308 156q-283 0 -297 -180h-276q29 203 174 287.5t399 84.5q162 0 278 -25.5t174 -60t90 -91t37 -94.5t5 -93zM414 1241h-150q49 266 285 266 q51 0 194.5 -45t186.5 -45q45 0 64.5 20.5t33.5 69.5h148q-31 -135 -62 -184q-59 -86 -186 -86q-72 0 -224.5 45t-191.5 45q-73 0 -98 -86z" />
<glyph unicode="&#xe4;" horiz-adv-x="1441" d="M997 436v105q-90 -37 -370 -68q-156 -18 -210.5 -54t-54.5 -110q0 -170 228 -170q66 0 130 13.5t129.5 44t106.5 93t41 146.5zM1280 762v-514q0 -61 61 -62q70 0 93 7v-199q-133 -25 -201 -25q-193 0 -213 140q-150 -150 -510 -150q-213 0 -327.5 89t-114.5 251 q0 61 18 111.5t45 84t73 59.5t82 40t95 24.5t89 14.5t85 8q109 10 174.5 17.5t120.5 16.5t81.5 17t45 21.5t23 28t4.5 36.5q0 156 -308 156q-283 0 -297 -180h-276q29 203 174 287.5t399 84.5q162 0 278 -25.5t174 -60t90 -91t37 -94.5t5 -93zM848 1257v230h282v-230h-282z M313 1257v230h283v-230h-283z" />
<glyph unicode="&#xe5;" horiz-adv-x="1441" d="M997 436v105q-90 -37 -370 -68q-156 -18 -210.5 -54t-54.5 -110q0 -170 228 -170q66 0 130 13.5t129.5 44t106.5 93t41 146.5zM1280 762v-514q0 -61 61 -62q70 0 93 7v-199q-133 -25 -201 -25q-193 0 -213 140q-150 -150 -510 -150q-213 0 -327.5 89t-114.5 251 q0 61 18 111.5t45 84t73 59.5t82 40t95 24.5t89 14.5t85 8q109 10 174.5 17.5t120.5 16.5t81.5 17t45 21.5t23 28t4.5 36.5q0 156 -308 156q-283 0 -297 -180h-276q29 203 174 287.5t399 84.5q162 0 278 -25.5t174 -60t90 -91t37 -94.5t5 -93zM592 1464.5q0 -53.5 38 -91.5 t91 -38t91 38t38 91.5t-38 91t-91 37.5t-91 -37.5t-38 -91zM473 1464.5q0 102.5 72.5 175t175 72.5t175.5 -72.5t73 -175t-73 -175t-175.5 -72.5t-175 72.5t-72.5 175z" />
<glyph unicode="&#xe6;" horiz-adv-x="2275" d="M987 465v51q-27 -8 -60.5 -15t-82.5 -14.5t-88 -11.5t-114 -11t-122 -13q-92 -10 -131 -47t-39 -103q0 -84 74 -116.5t164 -32.5q176 0 287.5 74.5t111.5 238.5zM1229 651h684q-12 121 -101.5 202t-234.5 81q-143 0 -237.5 -69t-110.5 -214zM389 754h-270 q12 197 171 284.5t386 87.5q362 0 483 -151q150 152 430 151q279 0 442.5 -162.5t163.5 -453.5v-39h-966q0 -166 92 -242.5t250 -76.5q80 0 139 16t97 49t52.5 50.5t36.5 51.5h283q-51 -106 -90 -151q-170 -209 -526 -209q-311 0 -469 213q-43 -43 -75 -67.5t-100.5 -64.5 t-167 -60.5t-223.5 -20.5q-72 0 -140.5 13.5t-146 47t-125.5 108.5t-48 181q0 78 30.5 136.5t76.5 92t125 56t151.5 32t181.5 17.5q260 18 305 37q43 33 45 94q0 160 -274 160q-302 0 -320 -180z" />
<glyph unicode="&#xe7;" horiz-adv-x="1402" d="M1335 705h-295q-16 88 -99 146t-202 58q-186 0 -281.5 -106.5t-95.5 -259.5q0 -156 87.5 -261.5t259.5 -105.5q154 0 220 54.5t118 185.5h294q-16 -106 -61 -189.5t-108.5 -130.5t-125 -77.5t-133 -42t-106.5 -14.5t-68 -3h-10l-39 -63q37 6 60 6q207 0 206 -148 q0 -82 -77.5 -125t-188.5 -43q-131 0 -239 31l30 90q80 -27 148 -26q111 0 110 63q0 29 -22.5 46t-52.5 17q-43 0 -93 -16l-36 41l81 133q-106 12 -188 43q-182 72 -271 212t-89 323q0 266 180 424.5t491 158.5q59 0 121 -8t142.5 -35.5t145 -70.5t118 -123t69.5 -184z" />
<glyph unicode="&#xe8;" d="M375 651h729q-14 102 -80 169t-137.5 90.5t-149.5 23.5q-121 0 -225 -66.5t-137 -216.5zM1399 471h-1024q6 -117 93 -212t275 -95q131 0 204 40t120 115h307q-180 -360 -622 -360q-342 0 -507 166t-165 407q0 270 181 432t472 162q174 0 306 -50t209 -138t114 -194.5 t37 -231.5v-41zM739 1518l183 -291h-244l-287 291h348z" />
<glyph unicode="&#xe9;" d="M375 651h729q-14 102 -80 169t-137.5 90.5t-149.5 23.5q-121 0 -225 -66.5t-137 -216.5zM1399 471h-1024q6 -117 93 -212t275 -95q131 0 204 40t120 115h307q-180 -360 -622 -360q-342 0 -507 166t-165 407q0 270 181 432t472 162q174 0 306 -50t209 -138t114 -194.5 t37 -231.5v-41zM616 1227l183 291h348l-287 -291h-244z" />
<glyph unicode="&#xea;" d="M375 651h729q-14 102 -80 169t-137.5 90.5t-149.5 23.5q-121 0 -225 -66.5t-137 -216.5zM1399 471h-1024q6 -117 93 -212t275 -95q131 0 204 40t120 115h307q-180 -360 -622 -360q-342 0 -507 166t-165 407q0 270 181 432t472 162q174 0 306 -50t209 -138t114 -194.5 t37 -231.5v-41zM918 1518l282 -291h-282l-173 170l-170 -170h-282l282 291h343z" />
<glyph unicode="&#xeb;" d="M375 651h729q-14 102 -80 169t-137.5 90.5t-149.5 23.5q-121 0 -225 -66.5t-137 -216.5zM1399 471h-1024q6 -117 93 -212t275 -95q131 0 204 40t120 115h307q-180 -360 -622 -360q-342 0 -507 166t-165 407q0 270 181 432t472 162q174 0 306 -50t209 -138t114 -194.5 t37 -231.5v-41zM870 1257v230h283v-230h-283zM336 1257v230h282v-230h-282z" />
<glyph unicode="&#xec;" horiz-adv-x="528" d="M123 0v1085h283v-1085h-283zM223 1520l183 -291h-244l-287 291h348z" />
<glyph unicode="&#xed;" horiz-adv-x="528" d="M123 0v1085h283v-1085h-283zM129 1227l182 291h348l-286 -291h-244z" />
<glyph unicode="&#xee;" horiz-adv-x="528" d="M123 0v1085h283v-1085h-283zM438 1518l283 -291h-283l-172 170l-170 -170h-282l282 291h342z" />
<glyph unicode="&#xef;" horiz-adv-x="528" d="M123 0v1085h283v-1085h-283zM391 1257v230h283v-230h-283zM-143 1257v230h282v-230h-282z" />
<glyph unicode="&#xf0;" d="M295 1233l229 104q-59 33 -205 84l152 144q152 -37 305 -111l242 111l96 -88l-211 -97q106 -63 188.5 -130.5t159 -166t118.5 -231.5t42 -291q0 -119 -38 -223.5t-114.5 -191.5t-210 -137t-309.5 -50q-338 0 -504.5 165t-166.5 398q0 229 155.5 396t450.5 167 q205 0 303 -77l4 4q-98 129 -319 258l-271 -125zM739.5 176q190.5 0 283.5 103.5t93 255t-93 255t-283.5 103.5t-284 -103.5t-93.5 -255t93.5 -255t284 -103.5z" />
<glyph unicode="&#xf1;" horiz-adv-x="1404" d="M115 0v1085h282v-163h4q152 193 428 192q94 0 172 -18.5t145.5 -59.5t105.5 -116.5t38 -182.5v-737h-282v647q0 250 -273 250q-131 0 -234.5 -78t-103.5 -235v-584h-282zM412 1241h-150q49 266 285 266q51 0 194.5 -45t186.5 -45q45 0 64.5 20.5t33.5 69.5h148 q-31 -135 -62 -184q-59 -86 -186 -86q-72 0 -224.5 45t-191.5 45q-73 0 -98 -86z" />
<glyph unicode="&#xf2;" d="M68 543q0 248 165.5 415.5t505.5 167.5t506 -167.5t166 -415.5q0 -250 -166 -417t-506 -167t-505.5 167t-165.5 417zM362 542.5q0 -155.5 93.5 -261t284 -105.5t283.5 105.5t93 261t-93 261t-283.5 105.5t-284 -105.5t-93.5 -261zM715 1518l182 -291h-244l-286 291h348z " />
<glyph unicode="&#xf3;" d="M68 543q0 248 165.5 415.5t505.5 167.5t506 -167.5t166 -415.5q0 -250 -166 -417t-506 -167t-505.5 167t-165.5 417zM362 542.5q0 -155.5 93.5 -261t284 -105.5t283.5 105.5t93 261t-93 261t-283.5 105.5t-284 -105.5t-93.5 -261zM616 1227l183 291h348l-287 -291h-244z " />
<glyph unicode="&#xf4;" d="M68 543q0 248 165.5 415.5t505.5 167.5t506 -167.5t166 -415.5q0 -250 -166 -417t-506 -167t-505.5 167t-165.5 417zM362 542.5q0 -155.5 93.5 -261t284 -105.5t283.5 105.5t93 261t-93 261t-283.5 105.5t-284 -105.5t-93.5 -261zM918 1518l282 -291h-282l-173 170 l-170 -170h-282l282 291h343z" />
<glyph unicode="&#xf5;" d="M68 543q0 248 165.5 415.5t505.5 167.5t506 -167.5t166 -415.5q0 -250 -166 -417t-506 -167t-505.5 167t-165.5 417zM362 542.5q0 -155.5 93.5 -261t284 -105.5t283.5 105.5t93 261t-93 261t-283.5 105.5t-284 -105.5t-93.5 -261zM440 1241h-149q49 266 284 266 q51 0 194.5 -45t186.5 -45q45 0 64.5 20.5t34.5 69.5h147q-31 -135 -61 -184q-59 -86 -187 -86q-72 0 -224 45t-191 45q-74 0 -99 -86z" />
<glyph unicode="&#xf6;" d="M68 543q0 248 165.5 415.5t505.5 167.5t506 -167.5t166 -415.5q0 -250 -166 -417t-506 -167t-505.5 167t-165.5 417zM362 542.5q0 -155.5 93.5 -261t284 -105.5t283.5 105.5t93 261t-93 261t-283.5 105.5t-284 -105.5t-93.5 -261zM872 1257v230h283v-230h-283zM338 1257 v230h283v-230h-283z" />
<glyph unicode="&#xf7;" horiz-adv-x="1228" d="M442 940q0 72 50.5 122t122 50t121.5 -50t50 -122t-50 -122t-121.5 -50t-122 50t-50.5 122zM442 96.5q0 71.5 50.5 121.5t122 50t121.5 -50t50 -121.5t-50 -122t-121.5 -50.5t-122 50.5t-50.5 122zM96 416v205h1037v-205h-1037z" />
<glyph unicode="&#xf8;" d="M1061 754l-574 -500q94 -78 252 -78q190 0 283.5 105.5t93.5 261.5q0 121 -55 211zM61 16l152 134q-145 152 -145 393q0 248 165.5 415.5t505.5 167.5q289 0 453 -125l158 140l67 -78l-149 -129q143 -152 143 -391q0 -250 -166 -417t-506 -167q-279 0 -448 123l-164 -143 zM420 330l573 499q-92 80 -254 80q-190 0 -283.5 -105.5t-93.5 -260.5q1 -125 58 -213z" />
<glyph unicode="&#xf9;" horiz-adv-x="1404" d="M115 360v725h282v-618q0 -141 57.5 -216t223.5 -75q117 0 223.5 79t106.5 234v596h282v-1085h-282v152h-4q-152 -193 -429 -193q-460 0 -460 401zM672 1518l182 -291h-244l-286 291h348z" />
<glyph unicode="&#xfa;" horiz-adv-x="1404" d="M115 360v725h282v-618q0 -141 57.5 -216t223.5 -75q117 0 223.5 79t106.5 234v596h282v-1085h-282v152h-4q-152 -193 -429 -193q-460 0 -460 401zM578 1227l182 291h348l-287 -291h-243z" />
<glyph unicode="&#xfb;" horiz-adv-x="1404" d="M115 360v725h282v-618q0 -141 57.5 -216t223.5 -75q117 0 223.5 79t106.5 234v596h282v-1085h-282v152h-4q-152 -193 -429 -193q-460 0 -460 401zM877 1518l282 -291h-282l-172 170l-170 -170h-283l283 291h342z" />
<glyph unicode="&#xfc;" horiz-adv-x="1404" d="M115 360v725h282v-618q0 -141 57.5 -216t223.5 -75q117 0 223.5 79t106.5 234v596h282v-1085h-282v152h-4q-152 -193 -429 -193q-460 0 -460 401zM831 1257v230h283v-230h-283zM297 1257v230h283v-230h-283z" />
<glyph unicode="&#xfd;" horiz-adv-x="1251" d="M485 18l-505 1067h307l348 -776l340 776h301l-592 -1278q-66 -137 -139.5 -179t-251.5 -42q-66 0 -176 4v217q45 -4 141 -4q123 0 164 84zM512 1227l182 291h348l-286 -291h-244z" />
<glyph unicode="&#xfe;" d="M115 -414v1901h282v-557h4q55 90 182.5 137t233.5 47q150 0 266.5 -51t186 -135t105.5 -183.5t36 -205.5q0 -109 -36 -209.5t-105.5 -184.5t-186 -135t-266.5 -51q-154 0 -274.5 65.5t-141.5 125.5h-4v-564h-282zM750 897q-184 0 -274.5 -103.5t-90.5 -254.5 q0 -156 90 -259.5t275 -103.5q188 0 277 103.5t89 259.5q0 152 -90 255t-276 103z" />
<glyph unicode="&#xff;" horiz-adv-x="1251" d="M485 18l-505 1067h307l348 -776l340 776h301l-592 -1278q-66 -137 -139.5 -179t-251.5 -42q-66 0 -176 4v217q45 -4 141 -4q123 0 164 84zM764 1257v230h283v-230h-283zM229 1257v230h283v-230h-283z" />
<glyph unicode="&#x152;" horiz-adv-x="2390" d="M1190 0v141h-4q-57 -76 -177 -129t-266 -53q-129 0 -245.5 45t-215 134t-156.5 244t-58 353q0 150 43 286t125.5 244.5t216 173t301.5 64.5q166 0 276.5 -53t155.5 -121h4v133h1083v-229h-809v-369h783v-229h-783v-406h824v-229h-1098zM1182 465v577q0 16 -22.5 51 t-63.5 77t-115 73t-160 31q-199 0 -316.5 -146.5t-117.5 -404.5q0 -102 22.5 -193.5t70.5 -170t134 -125t201 -46.5q160 0 263.5 99.5t103.5 177.5z" />
<glyph unicode="&#x153;" horiz-adv-x="2314" d="M1286 651h666q-12 121 -101.5 202t-234.5 81q-277 0 -330 -283zM350 555q0 -207 101.5 -299t244.5 -92q102 0 177 37t113 96t54.5 119.5t16.5 122.5q0 72 -18.5 136t-58.5 121.5t-112.5 91.5t-169.5 34q-133 0 -240.5 -89.5t-107.5 -277.5zM2234 471h-948q4 -135 91 -227 t245 -92q221 0 307 167h283q-14 -45 -45 -96t-95.5 -115.5t-182 -106.5t-269.5 -42q-313 0 -459 199q-162 -199 -479 -199q-279 0 -446.5 151.5t-167.5 436.5q0 113 34.5 213t106.5 184t194.5 133t284.5 49q338 0 481 -196q160 197 459 196q279 0 442.5 -162.5t163.5 -453.5 v-39z" />
<glyph unicode="&#x178;" horiz-adv-x="1556" d="M625 0v557l-639 905h374l418 -651l418 651h375l-639 -905v-557h-307zM903 1606v229h283v-229h-283zM369 1606v229h282v-229h-282z" />
<glyph unicode="&#x2c6;" horiz-adv-x="493" d="M418 1518l282 -291h-282l-172 170l-170 -170h-283l283 291h342z" />
<glyph unicode="&#x2dc;" horiz-adv-x="493" d="M-59 1241h-150q49 266 285 266q51 0 194.5 -45t186.5 -45q45 0 64.5 20.5t33.5 69.5h147q-31 -135 -61 -184q-59 -86 -186 -86q-72 0 -224.5 45t-191.5 45q-73 0 -98 -86z" />
<glyph unicode="&#x2000;" horiz-adv-x="1019" />
<glyph unicode="&#x2001;" horiz-adv-x="2039" />
<glyph unicode="&#x2002;" horiz-adv-x="1019" />
<glyph unicode="&#x2003;" horiz-adv-x="2039" />
<glyph unicode="&#x2004;" horiz-adv-x="679" />
<glyph unicode="&#x2005;" horiz-adv-x="509" />
<glyph unicode="&#x2006;" horiz-adv-x="339" />
<glyph unicode="&#x2007;" horiz-adv-x="339" />
<glyph unicode="&#x2008;" horiz-adv-x="253" />
<glyph unicode="&#x2009;" horiz-adv-x="407" />
<glyph unicode="&#x200a;" horiz-adv-x="112" />
<glyph unicode="&#x2010;" horiz-adv-x="985" d="M131 457v241h723v-241h-723z" />
<glyph unicode="&#x2011;" horiz-adv-x="985" d="M131 457v241h723v-241h-723z" />
<glyph unicode="&#x2012;" horiz-adv-x="985" d="M131 457v241h723v-241h-723z" />
<glyph unicode="&#x2013;" horiz-adv-x="1024" d="M0 457v241h1024v-241h-1024z" />
<glyph unicode="&#x2014;" horiz-adv-x="2048" d="M0 457v241h2048v-241h-2048z" />
<glyph unicode="&#x2018;" horiz-adv-x="720" d="M520 1120v-291h-319v222q0 367 319 411v-121q-90 -31 -118.5 -75.5t-32.5 -145.5h151z" />
<glyph unicode="&#x2019;" horiz-adv-x="720" d="M201 1171v291h319v-221q0 -367 -319 -412v121q90 27 116.5 73t34.5 148h-151z" />
<glyph unicode="&#x201a;" horiz-adv-x="720" d="M201 0v291h319v-221q0 -367 -319 -412v121q90 27 116.5 73t34.5 148h-151z" />
<glyph unicode="&#x201c;" horiz-adv-x="1097" d="M958 1120v-291h-319v222q0 367 319 411v-121q-90 -31 -118.5 -75.5t-32.5 -145.5h151zM459 1120v-291h-320v222q0 367 320 411v-121q-90 -31 -119 -75.5t-33 -145.5h152z" />
<glyph unicode="&#x201d;" horiz-adv-x="1097" d="M139 1171v291h320v-221q0 -367 -320 -412v121q90 27 117 73t35 148h-152zM639 1171v291h319v-221q0 -367 -319 -412v121q90 27 116.5 73t35.5 148h-152z" />
<glyph unicode="&#x201e;" horiz-adv-x="1097" d="M139 0v291h320v-221q0 -367 -320 -412v121q90 27 117 73t35 148h-152zM639 0v291h319v-221q0 -367 -319 -412v121q90 27 116.5 73t35.5 148h-152z" />
<glyph unicode="&#x2022;" horiz-adv-x="1024" d="M147 731.5q0 151.5 106.5 258t258.5 106.5t259.5 -106.5t107.5 -258t-107.5 -259t-259.5 -107.5t-258.5 107.5t-106.5 259z" />
<glyph unicode="&#x2026;" horiz-adv-x="2048" d="M1546 0v291h320v-291h-320zM864 0v291h320v-291h-320zM182 0v291h320v-291h-320z" />
<glyph unicode="&#x202f;" horiz-adv-x="407" />
<glyph unicode="&#x2039;" horiz-adv-x="720" d="M156 446v263l385 286v-241l-242 -176l242 -172v-242z" />
<glyph unicode="&#x203a;" horiz-adv-x="720" d="M565 709v-263l-385 -286v241l242 177l-242 172v241z" />
<glyph unicode="&#x205f;" horiz-adv-x="509" />
<glyph unicode="&#x20ac;" horiz-adv-x="1515" d="M1495 1255l-127 -192q-61 74 -149 117q-109 53 -248 53q-188 0 -293 -90q-82 -68 -113 -178h748l-94 -156h-682q-12 -88 0 -172h589l-94 -156h-471q25 -125 123 -209q106 -88 293 -88q160 0 291 70q111 59 186 152v-287q-78 -57 -164 -92q-162 -59 -360 -60 q-299 0 -469 152q-158 137 -199 362h-229l94 156h115q-12 86 0 172h-209l94 156h141q43 209 221 348q180 137 478 137q211 0 352 -64q113 -49 176 -131z" />
<glyph unicode="&#x2122;" horiz-adv-x="2027" d="M1706 618v639h-4l-240 -639h-127l-239 639h-4v-639h-168v844h254l223 -579l219 579h254v-844h-168zM305 618v701h-250v143h680v-143h-250v-701h-180z" />
<glyph unicode="&#xe000;" horiz-adv-x="1085" d="M0 1085h1085v-1085h-1085v1085z" />
<glyph unicode="&#xfb01;" horiz-adv-x="1290" d="M201 0v881h-224v204h224v140q0 55 10 96t41 87t100.5 70.5t173.5 24.5q166 0 254 -8v-205q-41 8 -145 8q-94 0 -123 -26.5t-29 -102.5v-84h297v-204h-297v-881h-282zM885 1257v230h282v-230h-282zM885 0v1085h282v-1085h-282z" />
<glyph unicode="&#xfb02;" horiz-adv-x="1290" d="M201 0v881h-224v204h224v140q0 55 10 96t41 87t100.5 70.5t173.5 24.5q166 0 254 -8v-205q-41 8 -145 8q-94 0 -123 -26.5t-29 -102.5v-84h297v-204h-297v-881h-282zM885 0v1487h282v-1487h-282z" />
<glyph unicode="&#xfb03;" horiz-adv-x="2043" d="M1639 1257v230h283v-230h-283zM1639 0v1085h283v-1085h-283zM959 0v881h-224v204h224v140q0 55 10 96t41 87t100.5 70.5t173.5 24.5q166 0 254 -8v-205q-41 8 -145 8q-94 0 -123 -26.5t-29 -102.5v-84h297v-204h-297v-881h-282zM201 0v881h-224v204h224v140q0 55 10 96 t41 87t100.5 70.5t173.5 24.5q166 0 254 -8v-205q-41 8 -145 8q-94 0 -123 -26.5t-29 -102.5v-84h297v-204h-297v-881h-282z" />
<glyph unicode="&#xfb04;" horiz-adv-x="2043" d="M1639 0v1487h283v-1487h-283zM959 0v881h-224v204h224v140q0 55 10 96t41 87t100.5 70.5t173.5 24.5q166 0 254 -8v-205q-41 8 -145 8q-94 0 -123 -26.5t-29 -102.5v-84h297v-204h-297v-881h-282zM201 0v881h-224v204h224v140q0 55 10 96t41 87t100.5 70.5t173.5 24.5 q166 0 254 -8v-205q-41 8 -145 8q-94 0 -123 -26.5t-29 -102.5v-84h297v-204h-297v-881h-282z" />
</font>
</defs>
</svg>
