<?xml version="1.0" standalone="no"?>
<!DOCTYPE svg PUBLIC "-//W3C//DTD SVG 1.1//EN" "http://www.w3.org/Graphics/SVG/1.1/DTD/svg11.dtd" >
<svg>
<metadata>
Created by FontForge 20110222 at Wed May  7 07:25:11 2014
 By Orthosie Webhosting
(c) Copyright 1999-2000 Bitstream/Galapagos Design Group. All rights reserved.
</metadata>
<defs>
<font id="FuturaHvHeavy" horiz-adv-x="1184" >
  <font-face 
    font-family="FuturaHvHeavy"
    font-weight="400"
    font-stretch="normal"
    units-per-em="2048"
    panose-1="2 11 7 2 2 2 4 2 2 4"
    ascent="1556"
    descent="-492"
    x-height="1006"
    cap-height="1544"
    bbox="-367 -553 2367 2140"
    underline-thickness="205"
    underline-position="-164"
    unicode-range="U+0020-FB02"
  />
<missing-glyph horiz-adv-x="1229" 
d="M102 -362v1806h1024v-1806h-1024zM217 -248h795v1577h-795v-1577z" />
    <glyph glyph-name=".notdef" horiz-adv-x="1229" 
d="M102 -362v1806h1024v-1806h-1024zM217 -248h795v1577h-795v-1577z" />
    <glyph glyph-name=".null" horiz-adv-x="0" 
 />
    <glyph glyph-name="nonmarkingreturn" horiz-adv-x="592" 
 />
    <glyph glyph-name="space" unicode=" " horiz-adv-x="592" 
 />
    <glyph glyph-name="exclam" unicode="!" horiz-adv-x="666" 
d="M504 139q0 -71 -49.5 -121.5t-120.5 -50.5t-121.5 51t-50.5 121q0 71 50 120.5t122 49.5q71 0 120.5 -49t49.5 -121zM475 477h-285v1067h285v-1067z" />
    <glyph glyph-name="quotedbl" unicode="&#x22;" horiz-adv-x="999" 
d="M373 985h-193v559h193v-559zM821 985h-192v559h192v-559z" />
    <glyph glyph-name="numbersign" unicode="#" 
d="M748 928h-250l-58 -312h252zM1182 1128l-39 -200h-178l-54 -312h189l-37 -200h-189l-73 -416h-221l73 416h-243l-76 -416h-219l71 416h-184l41 200h180l56 312h-197l39 200h194l74 416h221l-71 -416h241l74 416h221l-74 -416h181z" />
    <glyph glyph-name="dollar" unicode="$" 
d="M766 432q0 59 -38.5 107t-111.5 79v-362q79 22 114.5 64t35.5 112zM551 952v346q-63 -8 -108.5 -55.5t-45.5 -103.5q0 -57 40.5 -106.5t113.5 -80.5zM1057 449q0 -181 -121 -306t-320 -143v-205h-96v205q-154 4 -270.5 64t-177.5 165l180 181q39 -74 108 -114t160 -40
v403q-212 90 -313 205.5t-101 270.5q0 164 122 278.5t323 130.5v146h94v-145q108 -4 197.5 -53.5t165.5 -145.5l-185 -168q-34 56 -75.5 84t-102.5 36v-380q201 -82 306.5 -202t105.5 -267z" />
    <glyph glyph-name="percent" unicode="%" horiz-adv-x="1581" 
d="M1323 332q0 75 -45 126.5t-113 51.5t-114.5 -52t-46.5 -126q0 -75 46.5 -127.5t114.5 -52.5t113 52t45 128zM578 1214q0 76 -45.5 127.5t-112.5 51.5q-68 0 -115 -52t-47 -127t47 -127.5t115 -52.5q67 0 112.5 52.5t45.5 127.5zM1520 332q0 -150 -105 -257.5t-252 -107.5
q-146 0 -251 107.5t-105 257.5t105 256t251 106q147 0 252 -106t105 -256zM1341 1544l-950 -1544h-149l950 1544h149zM774 1214q0 -149 -105 -256.5t-251 -107.5q-147 0 -252 107.5t-105 256.5q0 150 105 256.5t252 106.5q146 0 251 -106.5t105 -256.5z" />
    <glyph glyph-name="ampersand" unicode="&#x26;" horiz-adv-x="1438" 
d="M823 340l-266 334q-96 -66 -135 -122t-39 -120q0 -88 55.5 -148.5t139.5 -60.5q54 0 115 29t130 88zM786 1214q0 64 -40 106t-97 42q-64 0 -100.5 -39t-36.5 -104q0 -35 21.5 -75.5t74.5 -107.5l23 -26q83 55 119 103t36 101zM1438 0h-342l-115 143q-108 -88 -210 -132
t-200 -44q-224 0 -356.5 121t-132.5 324q0 134 72.5 242.5t244.5 215.5l-12 15q-83 103 -112 169.5t-29 153.5q0 163 112.5 266t294.5 103q178 0 289 -98t111 -250q0 -117 -62 -214.5t-207 -197.5l228 -285q37 46 76 98.5t83 117.5l207 -162q-48 -66 -100 -130.5
t-104 -123.5z" />
    <glyph glyph-name="quotesingle" unicode="'" horiz-adv-x="606" 
d="M399 985h-192v559h192v-559z" />
    <glyph glyph-name="parenleft" unicode="(" horiz-adv-x="555" 
d="M539 -365l-222 -96q-114 207 -174.5 469t-60.5 553q0 290 60 549t175 467l222 -96q-90 -180 -140.5 -421t-50.5 -499q0 -259 50.5 -503t140.5 -423z" />
    <glyph glyph-name="parenright" unicode=")" horiz-adv-x="555" 
d="M473 561q0 -291 -60.5 -553t-174.5 -469l-222 96q90 179 140.5 423t50.5 503q0 258 -50.5 499t-140.5 421l222 96q115 -208 175 -467t60 -549z" />
    <glyph glyph-name="asterisk" unicode="*" horiz-adv-x="854" 
d="M813 1014l-80 -140l-239 154l14 -285h-162l14 285l-239 -154l-80 140l254 131l-254 129l80 141l239 -155l-14 284h162l-14 -284l239 155l80 -141l-252 -129z" />
    <glyph glyph-name="plus" unicode="+" 
d="M1130 461h-434v-461h-209v461h-432v205h432v458h209v-458h434v-205z" />
    <glyph glyph-name="comma" unicode="," horiz-adv-x="592" 
d="M487 297l-288 -635h-191l172 635h307z" />
    <glyph glyph-name="hyphen" unicode="-" horiz-adv-x="676" 
d="M618 383h-559v266h559v-266z" />
    <glyph glyph-name="period" unicode="." horiz-adv-x="592" 
d="M471 137q0 -71 -50 -120.5t-122 -49.5q-71 0 -121.5 50t-50.5 120q0 72 50.5 122t121.5 50t121.5 -50t50.5 -122z" />
    <glyph glyph-name="slash" unicode="/" horiz-adv-x="1104" 
d="M1034 1636l-827 -1943l-178 80l827 1943z" />
    <glyph glyph-name="zero" unicode="0" 
d="M848 776q0 240 -71.5 389.5t-186.5 149.5q-114 0 -184 -150.5t-70 -392.5q0 -239 70.5 -391t183.5 -152q116 0 187 151t71 396zM1143 774q0 -364 -151.5 -585.5t-401.5 -221.5q-251 0 -400 220t-149 587q0 363 149.5 583t399.5 220q252 0 402.5 -218t150.5 -585z" />
    <glyph glyph-name="one" unicode="1" 
d="M807 0h-295v1282h-293l123 262h465v-1544z" />
    <glyph glyph-name="two" unicode="2" 
d="M1073 0h-1010l510 721q102 144 140.5 233t38.5 172q0 88 -50 136.5t-139 48.5q-88 0 -138 -64t-50 -170h-291q0 244 122 372t357 128t362.5 -112t127.5 -312q0 -145 -69 -289.5t-275 -423.5l-129 -174h493v-266z" />
    <glyph glyph-name="three" unicode="3" 
d="M1081 430q0 -213 -141 -338t-385 -125q-225 0 -358.5 122t-133.5 333h285q0 -88 58 -138.5t155 -50.5q110 0 167.5 55.5t57.5 162.5q0 115 -61.5 174t-181.5 59h-39v266h35q108 0 162.5 47.5t54.5 143.5q0 82 -48 131t-128 49q-86 0 -134 -39.5t-57 -115.5l-274 -1
q11 199 133.5 305.5t341.5 106.5q211 0 334 -111.5t123 -302.5q0 -129 -67.5 -220.5t-178.5 -113.5q128 -29 204 -137.5t76 -261.5z" />
    <glyph glyph-name="four" unicode="4" 
d="M692 526v654l-405 -654h405zM1133 301h-154v-301h-287v301h-686v135l705 1108h268v-1018h154v-225z" />
    <glyph glyph-name="five" unicode="5" 
d="M1071 510q0 -258 -155.5 -400.5t-442.5 -142.5q-119 0 -216 28t-191 91l63 246q113 -76 178 -97.5t146 -21.5q152 0 237.5 79.5t85.5 217.5q0 129 -84.5 211t-220.5 82q-71 0 -139 -24.5t-133 -73.5l-70 43l141 796h756v-266h-545l-49 -260q33 11 66 15.5t84 4.5
q223 0 356 -145.5t133 -382.5z" />
    <glyph glyph-name="six" unicode="6" 
d="M823 479q0 106 -63.5 174t-165.5 68q-105 0 -168.5 -65t-63.5 -177q0 -110 65 -180t167 -70q101 0 165 70.5t64 179.5zM1114 479q0 -217 -147.5 -364.5t-372.5 -147.5t-373.5 146t-148.5 366q0 123 53 263t180 343l287 459h338l-393 -589q9 6 32.5 11t44.5 5
q229 0 364.5 -134t135.5 -358z" />
    <glyph glyph-name="seven" unicode="7" 
d="M1114 1473l-616 -1473h-334l565 1278h-659v266h1044v-71z" />
    <glyph glyph-name="eight" unicode="8" 
d="M821 457q0 109 -60.5 171t-166.5 62q-105 0 -168.5 -64t-63.5 -169q0 -106 63 -170t169 -64q105 0 166 63.5t61 170.5zM776 1135q0 85 -48.5 135.5t-131.5 50.5q-84 0 -136 -51.5t-52 -132.5q0 -86 50 -138.5t134 -52.5q86 0 135 51t49 138zM1120 436q0 -217 -140 -343
t-386 -126q-244 0 -387.5 125.5t-143.5 335.5q0 149 72.5 255.5t202.5 147.5q-114 50 -167.5 132t-53.5 204q0 184 130.5 297t346.5 113q219 0 347 -114t128 -306q0 -114 -57 -198.5t-164 -127.5q128 -41 200 -145.5t72 -249.5z" />
    <glyph glyph-name="nine" unicode="9" 
d="M823 1065q0 110 -64.5 180t-166.5 70q-101 0 -165.5 -70t-64.5 -180q0 -106 64 -174t166 -68q104 0 167.5 65t63.5 177zM1114 1065q0 -121 -53 -260t-182 -346l-285 -459h-338l393 590q-10 -7 -33 -12t-45 -5q-228 0 -363.5 134.5t-135.5 357.5q0 218 147.5 365
t372.5 147t373.5 -146t148.5 -366z" />
    <glyph glyph-name="colon" unicode=":" horiz-adv-x="592" 
d="M471 137q0 -71 -50 -120.5t-122 -49.5q-71 0 -121.5 50t-50.5 120q0 72 50.5 122t121.5 50t121.5 -50t50.5 -122zM471 866q0 -71 -50 -120.5t-122 -49.5q-71 0 -121.5 50t-50.5 120q0 72 50.5 122t121.5 50t121.5 -50t50.5 -122z" />
    <glyph glyph-name="semicolon" unicode=";" horiz-adv-x="592" 
d="M487 297l-288 -635h-191l172 635h307zM498 866q0 -71 -50 -120.5t-122 -49.5t-122 50t-50 120q0 72 50 122t122 50q71 0 121.5 -50t50.5 -122z" />
    <glyph glyph-name="less" unicode="&#x3c;" 
d="M1130 18l-1075 443v198l1075 441v-226l-778 -315l778 -315v-226z" />
    <glyph glyph-name="equal" unicode="=" 
d="M1130 246h-1075v205h1075v-205zM1130 676h-1075v205h1075v-205z" />
    <glyph glyph-name="greater" unicode="&#x3e;" 
d="M1128 461l-1077 -443v226l780 315l-780 315v226l1077 -441v-198z" />
    <glyph glyph-name="question" unicode="?" horiz-adv-x="997" 
d="M659 139q0 -71 -49 -121.5t-121 -50.5q-71 0 -121.5 51t-50.5 121q0 71 50.5 120.5t121.5 49.5q72 0 121 -49t49 -121zM948 1126q0 -157 -81.5 -258t-235.5 -133v-258h-285v445h109q96 0 147 55t51 160q0 79 -44 126.5t-115 47.5q-81 0 -121.5 -49.5t-40.5 -147.5h-283
q0 219 120.5 341t340.5 122q201 0 319.5 -123t118.5 -328z" />
    <glyph glyph-name="at" unicode="@" horiz-adv-x="1997" 
d="M1190 776q-12 82 -57 125t-117 43q-116 0 -196.5 -116t-80.5 -287q0 -88 38.5 -130t119.5 -42t156.5 73.5t99.5 178.5zM1933 860q0 -277 -151.5 -467t-405.5 -190q-111 0 -172.5 43.5t-62.5 121.5q-55 -83 -127.5 -123t-169.5 -40q-157 0 -240.5 87.5t-83.5 252.5
q0 239 139.5 401t344.5 162q80 0 139 -33t96 -98l53 98h178l-143 -582q-3 -12 -4.5 -22.5t-1.5 -17.5q0 -53 12.5 -68.5t50.5 -15.5q155 0 250 134.5t95 360.5q0 250 -175.5 399.5t-470.5 149.5q-377 0 -596 -212.5t-219 -582.5q0 -307 197 -482t543 -175q158 0 313 50
t291 145l82 -138q-154 -115 -325 -173t-357 -58q-432 0 -690.5 222.5t-258.5 606.5q0 424 287.5 692.5t739.5 268.5q365 0 604 -199t239 -518z" />
    <glyph glyph-name="A" unicode="A" horiz-adv-x="1384" 
d="M887 588l-195 657l-194 -657h389zM1395 0h-336l-101 342h-530l-102 -342h-336l524 1544h358z" />
    <glyph glyph-name="B" unicode="B" horiz-adv-x="1133" 
d="M758 477q0 102 -64.5 156.5t-185.5 54.5h-78v-432h78q125 0 187.5 55t62.5 166zM688 1114q0 94 -56.5 134t-185.5 40h-16v-354h16q118 0 180 46.5t62 133.5zM1071 461q0 -226 -148 -343.5t-436 -117.5h-364v1544h323q274 0 403.5 -99t129.5 -308q0 -126 -66.5 -207
t-183.5 -103q141 -13 241.5 -117.5t100.5 -248.5z" />
    <glyph glyph-name="C" unicode="C" horiz-adv-x="1231" 
d="M1190 84q-62 -46 -182 -81.5t-217 -35.5q-348 0 -549 218.5t-201 588.5q0 352 207.5 577.5t548.5 225.5q127 0 220 -24t173 -78v-334q-79 70 -174 107.5t-191 37.5q-214 0 -342.5 -140t-128.5 -372q0 -238 117.5 -377t323.5 -139q123 0 219 41t176 127v-342z" />
    <glyph glyph-name="D" unicode="D" horiz-adv-x="1323" 
d="M948 772q0 239 -124 372.5t-347 133.5h-74v-1012h74q222 0 346.5 132.5t124.5 373.5zM1262 770q0 -366 -218 -568t-610 -202h-332v1544h308q412 0 632 -198.5t220 -575.5z" />
    <glyph glyph-name="E" unicode="E" horiz-adv-x="999" 
d="M897 0h-774v1544h774v-266h-467v-360h467v-267h-467v-385h467v-266z" />
    <glyph glyph-name="F" unicode="F" horiz-adv-x="948" 
d="M887 651h-453v-651h-301v1544h754v-266h-453v-360h453v-267z" />
    <glyph glyph-name="G" unicode="G" horiz-adv-x="1513" 
d="M1483 772q0 -355 -195.5 -580t-509.5 -225q-319 0 -528 228t-209 577t209 577t528 228q190 0 349.5 -84.5t250.5 -232.5l-231 -170q-60 96 -151 143t-218 47q-195 0 -310.5 -139.5t-115.5 -368.5t115.5 -368.5t310.5 -139.5q136 0 225 70.5t136 214.5h-361v266h705v-43z
" />
    <glyph glyph-name="H" unicode="H" horiz-adv-x="1380" 
d="M1257 0h-301v651h-532v-651h-301v1544h301v-626h532v626h301v-1544z" />
    <glyph glyph-name="I" unicode="I" horiz-adv-x="520" 
d="M412 0h-301v1544h301v-1544z" />
    <glyph glyph-name="J" unicode="J" horiz-adv-x="797" 
d="M684 485q0 -301 -81 -409.5t-290 -108.5q-150 0 -231 81.5t-92 242.5l258 92q0 -76 15.5 -107.5t51.5 -31.5q43 0 55.5 52.5t12.5 184.5v1063h301v-1059z" />
    <glyph glyph-name="K" unicode="K" horiz-adv-x="1270" 
d="M1305 0h-365l-516 807v-807h-301v1544h301v-702l512 702h350l-549 -706z" />
    <glyph glyph-name="L" unicode="L" horiz-adv-x="823" 
d="M803 0h-680v1544h301v-1278h379v-266z" />
    <glyph glyph-name="M" unicode="M" horiz-adv-x="1712" 
d="M1696 0h-297l-142 1133l-313 -1133h-176l-313 1133l-142 -1133h-297l213 1544h369l258 -936l279 936h348z" />
    <glyph glyph-name="N" unicode="N" horiz-adv-x="1554" 
d="M1432 0h-295l-719 1042v-1042h-295v1544h295l719 -1038v1038h295v-1544z" />
    <glyph glyph-name="O" unicode="O" horiz-adv-x="1602" 
d="M1249 772q0 224 -124.5 366t-323.5 142q-200 0 -324.5 -142t-124.5 -366t124.5 -366t324.5 -142q199 0 323.5 142t124.5 366zM1561 772q0 -345 -218.5 -575t-541.5 -230t-541.5 230t-218.5 575t218.5 575t541.5 230t541.5 -230t218.5 -575z" />
    <glyph glyph-name="P" unicode="P" horiz-adv-x="1081" 
d="M719 1073q0 110 -62 167.5t-182 57.5h-51v-452h51q129 0 186.5 53.5t57.5 173.5zM1030 1073q0 -216 -152 -344.5t-411 -128.5h-43v-600h-301v1544h344q273 0 418 -121.5t145 -349.5z" />
    <glyph glyph-name="Q" unicode="Q" horiz-adv-x="1602" 
d="M1249 772q0 224 -124.5 366t-323.5 142q-200 0 -324.5 -142t-124.5 -366t124.5 -366t324.5 -142q28 0 55 3t51 9l-166 207l254 84l127 -164q62 70 94.5 164.5t32.5 204.5zM1561 772q0 -181 -66.5 -339.5t-187.5 -270.5l215 -279l-199 -149l-223 295q-73 -31 -148 -46.5
t-151 -15.5q-323 0 -541.5 230t-218.5 575t218.5 575t541.5 230t541.5 -230t218.5 -575z" />
    <glyph glyph-name="R" unicode="R" horiz-adv-x="1143" 
d="M758 1087q0 110 -65 160.5t-201 50.5h-68v-417h68q134 0 200 50.5t66 155.5zM1149 0h-361l-364 705v-705h-301v1544h416q261 0 396.5 -110t135.5 -320q0 -178 -90 -286t-236 -123z" />
    <glyph glyph-name="S" unicode="S" horiz-adv-x="1077" 
d="M1018 426q0 -221 -130 -340t-374 -119q-169 0 -294 61.5t-181 172.5l190 213q31 -80 111.5 -130.5t173.5 -50.5q95 0 144 44t49 129q0 74 -65.5 134t-231.5 152q-182 101 -257 205t-75 246q0 198 130.5 316t352.5 118q135 0 238 -50.5t172 -150.5l-185 -202
q-29 59 -94 98t-135 39q-80 0 -127 -41.5t-47 -102.5q0 -123 219 -241q40 -21 62 -33q192 -107 273 -213t81 -254z" />
    <glyph glyph-name="T" unicode="T" horiz-adv-x="924" 
d="M903 1278h-291v-1278h-301v1278h-291v266h883v-266z" />
    <glyph glyph-name="U" unicode="U" horiz-adv-x="1352" 
d="M1239 600q0 -307 -145.5 -470t-417.5 -163q-268 0 -415.5 167.5t-147.5 465.5v944h311v-997q0 -149 64.5 -226t187.5 -77q128 0 190 75t62 228v997h311v-944z" />
    <glyph glyph-name="V" unicode="V" horiz-adv-x="1309" 
d="M1321 1544l-502 -1544h-327l-502 1544h346l319 -1147l320 1147h346z" />
    <glyph glyph-name="W" unicode="W" horiz-adv-x="2001" 
d="M2011 1544l-440 -1544h-297l-273 1110l-274 -1110h-297l-440 1544h327l267 -1065l274 1065h285l274 -1065l266 1065h328z" />
    <glyph glyph-name="X" unicode="X" horiz-adv-x="1276" 
d="M1272 0h-357l-278 545l-279 -545h-354l457 809l-445 735h355l272 -502l262 502h352l-440 -735z" />
    <glyph glyph-name="Y" unicode="Y" horiz-adv-x="1202" 
d="M1212 1544l-460 -860v-684h-301v684l-461 860h344l272 -583l264 583h342z" />
    <glyph glyph-name="Z" unicode="Z" horiz-adv-x="1178" 
d="M1157 1544l-698 -1278h678v-266h-1147l702 1278h-624v266h1089z" />
    <glyph glyph-name="bracketleft" unicode="[" horiz-adv-x="590" 
d="M551 -440h-451v1984h451v-235h-195v-1514h195v-235z" />
    <glyph glyph-name="backslash" unicode="\" horiz-adv-x="1104" 
d="M1075 -227l-178 -80l-827 1943l178 80z" />
    <glyph glyph-name="bracketright" unicode="]" horiz-adv-x="590" 
d="M489 -440h-450v235h194v1514h-194v235h450v-1984z" />
    <glyph glyph-name="asciicircum" unicode="^" 
d="M1087 866h-229l-266 402l-266 -402h-230l400 678h192z" />
    <glyph glyph-name="underscore" unicode="_" horiz-adv-x="1024" 
d="M1024 -442h-1024v213h1024v-213z" />
    <glyph glyph-name="grave" unicode="`" horiz-adv-x="778" 
d="M571 1227l-73 -117l-387 203l114 176z" />
    <glyph glyph-name="a" unicode="a" horiz-adv-x="1157" 
d="M768 502q0 119 -63.5 200.5t-157.5 81.5t-156.5 -81t-62.5 -201t62 -200.5t157 -80.5t158 81t63 200zM1055 0h-287v115q-44 -73 -112.5 -110.5t-157.5 -37.5q-207 0 -334 150t-127 385t127 385.5t334 150.5q95 0 166 -38.5t104 -108.5v115h287v-1006z" />
    <glyph glyph-name="b" unicode="b" horiz-adv-x="1157" 
d="M829 504q0 119 -62 199.5t-157 80.5t-158 -80.5t-63 -199.5q0 -120 63.5 -201.5t157.5 -81.5t156.5 81.5t62.5 201.5zM1120 504q0 -235 -127 -386t-334 -151q-95 0 -166 39t-104 109v-115h-287v1690h287v-799q44 72 112.5 109.5t157.5 37.5q207 0 334 -149.5t127 -384.5z
" />
    <glyph glyph-name="c" unicode="c" horiz-adv-x="862" 
d="M831 33q-61 -37 -115 -51.5t-126 -14.5q-252 0 -402.5 146t-150.5 389q0 239 151.5 387.5t401.5 148.5q73 0 127.5 -14t113.5 -47v-287q-39 42 -101 68t-122 26q-121 0 -200.5 -80t-79.5 -200q0 -130 75.5 -206.5t204.5 -76.5q64 0 123.5 26t99.5 72v-286z" />
    <glyph glyph-name="d" unicode="d" horiz-adv-x="1157" 
d="M768 502q0 119 -63.5 200.5t-157.5 81.5t-156.5 -81t-62.5 -201t62 -200.5t157 -80.5t158 81t63 200zM1055 0h-287v115q-44 -73 -112.5 -110.5t-157.5 -37.5q-207 0 -334 150t-127 385t127 385.5t334 150.5q95 0 166 -38.5t104 -108.5v799h287v-1690z" />
    <glyph glyph-name="e" unicode="e" horiz-adv-x="1026" 
d="M717 592q-19 99 -73.5 156t-131.5 57t-132 -58t-73 -155h410zM1001 504q0 -37 -0.5 -55t-3.5 -33h-690q21 -96 82 -155.5t139 -59.5q67 0 121.5 34t81.5 93l230 -115q-60 -119 -173 -182.5t-268 -63.5q-224 0 -359.5 147.5t-135.5 389.5q0 226 141 380t348 154
q215 0 351 -151t136 -383z" />
    <glyph glyph-name="f" unicode="f" horiz-adv-x="621" 
d="M621 770h-183v-770h-286v770h-127v236h127v301q0 205 90 307t272 102q24 0 53.5 -3t53.5 -9v-252q-15 6 -28.5 8t-35.5 2q-64 0 -91.5 -41.5t-27.5 -134.5v-280h183v-236z" />
    <glyph glyph-name="g" unicode="g" horiz-adv-x="1151" 
d="M768 502q0 119 -63.5 200.5t-157.5 81.5t-156.5 -81t-62.5 -201t62 -200.5t157 -80.5t158 81t63 200zM1055 -53q0 -262 -117 -381t-373 -119q-235 0 -366 98t-131 267h292q0 -54 57 -86.5t148 -32.5q111 0 157 56.5t46 191.5v174q-44 -73 -112.5 -110.5t-157.5 -37.5
q-207 0 -334 150t-127 385t127 385.5t334 150.5q95 0 166 -38.5t104 -108.5v115h287v-1059z" />
    <glyph glyph-name="h" unicode="h" horiz-adv-x="1106" 
d="M1008 0h-285v592q0 114 -34.5 165.5t-110.5 51.5q-83 0 -136 -78t-53 -215v-516h-287v1690h287v-801q41 73 119.5 111t185.5 38q160 0 237 -96t77 -293v-649z" />
    <glyph glyph-name="i" unicode="i" horiz-adv-x="518" 
d="M403 0h-286v1006h286v-1006zM426 1411q0 -69 -48.5 -117.5t-117.5 -48.5t-117.5 48.5t-48.5 117.5t48.5 117.5t117.5 48.5t117.5 -48.5t48.5 -117.5z" />
    <glyph glyph-name="j" unicode="j" horiz-adv-x="518" 
d="M403 -532h-286v1538h286v-1538zM426 1411q0 -69 -48.5 -117.5t-117.5 -48.5t-117.5 48.5t-48.5 117.5t48.5 117.5t117.5 48.5t117.5 -48.5t48.5 -117.5z" />
    <glyph glyph-name="k" unicode="k" horiz-adv-x="1077" 
d="M1069 0h-352l-328 532v-532h-287v1690h287v-1131l318 447h342l-347 -447z" />
    <glyph glyph-name="l" unicode="l" horiz-adv-x="489" 
d="M389 0h-287v1690h287v-1690z" />
    <glyph glyph-name="m" unicode="m" horiz-adv-x="1642" 
d="M1544 0h-284v592q0 125 -27.5 171t-97.5 46q-77 0 -122.5 -76.5t-45.5 -216.5v-516h-285v592q0 125 -27.5 171t-97.5 46q-77 0 -122.5 -76.5t-45.5 -216.5v-516h-287v1006h287v-117q43 76 113 112.5t172 36.5q101 0 167.5 -43t96.5 -129q44 79 129 125.5t184 46.5
q154 0 223.5 -93t69.5 -296v-649z" />
    <glyph glyph-name="n" unicode="n" horiz-adv-x="1106" 
d="M1008 0h-285v592q0 114 -34.5 165.5t-110.5 51.5q-83 0 -136 -78t-53 -215v-516h-287v1006h287v-117q41 73 119.5 111t185.5 38q155 0 234.5 -103.5t79.5 -305.5v-629z" />
    <glyph glyph-name="o" unicode="o" horiz-adv-x="1122" 
d="M795 504q0 120 -67.5 200t-166.5 80q-103 0 -168 -78.5t-65 -201.5q0 -125 65.5 -204t167.5 -79q107 0 170.5 78t63.5 205zM1085 504q0 -228 -148.5 -382.5t-373.5 -154.5q-226 0 -376 154t-150 383q0 231 149 382.5t377 151.5q225 0 373.5 -153.5t148.5 -380.5z" />
    <glyph glyph-name="p" unicode="p" horiz-adv-x="1157" 
d="M834 504q0 118 -64 199t-160 81q-95 0 -158 -80.5t-63 -199.5q0 -120 63.5 -201.5t157.5 -81.5q95 0 159.5 82t64.5 201zM1120 504q0 -235 -127 -386t-334 -151q-95 0 -166 39t-104 109v-647h-287v1538h287v-115q44 72 112.5 109.5t157.5 37.5q207 0 334 -149.5
t127 -384.5z" />
    <glyph glyph-name="q" unicode="q" horiz-adv-x="1157" 
d="M768 502q0 119 -63.5 200.5t-157.5 81.5q-95 0 -159 -81.5t-64 -200.5t64 -200t159 -81t158 81t63 200zM1055 -532h-287v647q-44 -73 -112.5 -110.5t-157.5 -37.5q-207 0 -334 150t-127 385t127 385.5t334 150.5q95 0 166 -38.5t104 -108.5v115h287v-1538z" />
    <glyph glyph-name="r" unicode="r" horiz-adv-x="752" 
d="M772 1022l-51 -297q-27 14 -50.5 20.5t-49.5 6.5q-118 0 -175 -77.5t-57 -238.5v-436h-287v1006h287v-211q40 135 104.5 189t190.5 54q21 0 46 -4.5t42 -11.5z" />
    <glyph glyph-name="s" unicode="s" horiz-adv-x="840" 
d="M197 262q25 -37 77.5 -63.5t104.5 -26.5q60 0 94.5 25t34.5 67q0 47 -43 80t-141 70q-141 53 -201 124.5t-60 190.5q0 142 104.5 225.5t287.5 83.5q95 0 170 -29.5t127 -86.5l-134 -162q-41 41 -78 57.5t-85 16.5q-59 0 -92 -23.5t-33 -60.5q0 -53 42 -88t140 -68
q131 -43 200.5 -123t69.5 -186q0 -148 -107 -233t-296 -85q-116 0 -209 39.5t-141 108.5z" />
    <glyph glyph-name="t" unicode="t" horiz-adv-x="561" 
d="M561 770h-141v-770h-287v770h-113v236h113v325h287v-325h141v-236z" />
    <glyph glyph-name="u" unicode="u" horiz-adv-x="1096" 
d="M997 451q0 -251 -108 -367.5t-340 -116.5q-242 0 -346.5 113t-104.5 371v555h287v-586q0 -102 40 -150.5t124 -48.5q79 0 120.5 51t41.5 148v586h286v-555z" />
    <glyph glyph-name="v" unicode="v" horiz-adv-x="999" 
d="M1010 1006l-367 -1006h-285l-368 1006h317l193 -641l192 641h318z" />
    <glyph glyph-name="w" unicode="w" horiz-adv-x="1604" 
d="M1614 1006l-357 -1006h-284l-170 602l-170 -602h-285l-358 1006h317l182 -652l170 652h285l170 -652l182 652h318z" />
    <glyph glyph-name="x" unicode="x" horiz-adv-x="1124" 
d="M1133 0h-359l-217 311l-213 -311h-352l393 518l-367 488h353l198 -295l187 295h352l-371 -488z" />
    <glyph glyph-name="y" unicode="y" horiz-adv-x="1065" 
d="M1065 1006l-563 -1538h-318l211 557l-381 981h318l209 -648l207 648h317z" />
    <glyph glyph-name="z" unicode="z" horiz-adv-x="985" 
d="M944 1006l-475 -764h471v-242h-940l481 764h-426v242h889z" />
    <glyph glyph-name="braceleft" unicode="{" horiz-adv-x="797" 
d="M684 -440q-255 0 -334.5 70t-79.5 270v397q0 93 -29.5 115t-127.5 22v236q98 0 127.5 22t29.5 115v397q0 199 79.5 269.5t334.5 70.5v-235q-98 0 -128 -22t-30 -116v-356q0 -96 -26 -160.5t-80 -101.5q54 -37 80 -102.5t26 -161.5v-357q0 -93 30 -115t128 -22v-235z" />
    <glyph glyph-name="bar" unicode="|" horiz-adv-x="1102" 
d="M616 -504h-206v2048h206v-2048z" />
    <glyph glyph-name="braceright" unicode="}" horiz-adv-x="797" 
d="M684 434q-98 0 -128 -22t-30 -115v-397q0 -200 -79 -270t-334 -70v235q98 0 127.5 22t29.5 115v357q0 96 26.5 161.5t80.5 102.5q-54 37 -80.5 101.5t-26.5 160.5v356q0 94 -29.5 116t-127.5 22v235q255 0 334 -70.5t79 -269.5v-397q0 -93 30 -115t128 -22v-236z" />
    <glyph glyph-name="asciitilde" unicode="~" 
d="M1053 555q-57 -79 -129 -119.5t-158 -40.5q-46 0 -91 15.5t-83 44.5q-62 45 -106 64.5t-89 19.5q-71 0 -125.5 -38t-140.5 -143v226q57 79 129 119t158 40q45 0 89.5 -15.5t84.5 -45.5q60 -44 104 -63t90 -19q71 0 126 38t141 142v-225z" />
    <glyph glyph-name="c4606" horiz-adv-x="1706" 
d="M1614 1284l-94 -215q-85 100 -197 152.5t-240 52.5q-162 0 -294 -82t-203 -227h864l-82 -179h-831q-1 -4 -2 -10q-3 -26 -3 -37q1 -15 4 -49q0 -4 1 -6h786l-82 -178h-657q73 -146 205.5 -227.5t295.5 -81.5q132 0 242.5 51.5t190.5 150.5v-297q-104 -70 -213 -106.5
t-218 -36.5q-259 0 -464.5 148.5t-290.5 398.5h-291l80 178h178q-1 17 -1.5 31t-0.5 28q0 10 0.5 21t1.5 22h-287l80 179h240q88 252 293 399t467 147q138 0 276 -59.5t246 -167.5z" />
    <glyph glyph-name="c4606" unicode="&#x20ac;" horiz-adv-x="1706" 
d="M1614 1284l-94 -215q-85 100 -197 152.5t-240 52.5q-162 0 -294 -82t-203 -227h864l-82 -179h-831q-1 -4 -2 -10q-3 -26 -3 -37q1 -15 4 -49q0 -4 1 -6h786l-82 -178h-657q73 -146 205.5 -227.5t295.5 -81.5q132 0 242.5 51.5t190.5 150.5v-297q-104 -70 -213 -106.5
t-218 -36.5q-259 0 -464.5 148.5t-290.5 398.5h-291l80 178h178q-1 17 -1.5 31t-0.5 28q0 10 0.5 21t1.5 22h-287l80 179h240q88 252 293 399t467 147q138 0 276 -59.5t246 -167.5z" />
    <glyph glyph-name="figspace" unicode="&#xa0;" 
 />
    <glyph glyph-name="figspace" unicode="&#x2007;" 
 />
    <glyph glyph-name="exclamdown" unicode="&#xa1;" horiz-adv-x="666" 
d="M475 0h-285v1067h285v-1067zM504 1405q0 -71 -50.5 -120.5t-121.5 -49.5q-72 0 -121 49t-49 121t49.5 122t120.5 50t121.5 -51t50.5 -121z" />
    <glyph glyph-name="cent" unicode="&#xa2;" 
d="M893 311q-55 -32 -103.5 -47t-105.5 -19v-204h-113v209q-219 23 -346 165.5t-127 364.5q0 219 128.5 364t344.5 169v190h113v-186q58 -3 106.5 -17.5t102.5 -44.5v-286q-40 41 -101.5 67.5t-121.5 26.5q-133 0 -207 -75t-74 -206q0 -130 75.5 -206t205.5 -76q64 0 123 26
t100 72v-287z" />
    <glyph glyph-name="sterling" unicode="&#xa3;" 
d="M1155 141q-53 -85 -127 -129.5t-164 -44.5q-128 0 -278 60.5t-209 60.5q-56 0 -120.5 -33.5t-106.5 -87.5l-99 226q51 50 121.5 85t138.5 46q21 25 32 62.5t11 80.5q0 47 -12 96t-35 96h-244v144h170q-49 72 -72.5 151t-23.5 170q0 202 142 327.5t389 125.5
q191 0 316 -87.5t167 -250.5l-264 -133q-8 100 -69.5 158.5t-160.5 58.5q-100 0 -162.5 -63t-62.5 -152q0 -73 22.5 -150t65.5 -155h379v-144h-315q7 -18 12.5 -44.5t5.5 -45.5q0 -76 -27.5 -134t-91.5 -116q50 0 166.5 -53t179.5 -53q55 0 97.5 27t74.5 84z" />
    <glyph glyph-name="currency" unicode="&#xa4;" 
d="M930 1034q0 140 -99 239t-239 99t-239 -99t-99 -239t99 -239t239 -99t239 99t99 239zM1135 590l-99 -98l-149 149q-63 -47 -138.5 -71.5t-156.5 -24.5t-156.5 24.5t-138.5 71.5l-150 -149l-98 98l150 149q-47 63 -72 138.5t-25 156.5q0 82 25 157t72 138l-150 150l98 98
l150 -150q63 47 138.5 72t156.5 25t156.5 -25t138.5 -72l149 150l99 -98l-150 -150q47 -63 71.5 -138t24.5 -157q0 -81 -24.5 -156.5t-71.5 -138.5z" />
    <glyph glyph-name="yen" unicode="&#xa5;" 
d="M1194 1544l-268 -512h237v-143h-313l-96 -184h409v-144h-420v-561h-301v561h-422v144h412l-98 184h-314v143h240l-270 512h344l264 -583l254 583h342z" />
    <glyph glyph-name="brokenbar" unicode="&#xa6;" horiz-adv-x="1102" 
d="M616 -371h-206v758h206v-758zM616 653h-206v758h206v-758z" />
    <glyph glyph-name="section" unicode="&#xa7;" horiz-adv-x="1182" 
d="M809 563q0 101 -61 160t-156 59q-100 0 -159.5 -62.5t-59.5 -164.5q0 -99 59 -154t158 -55q91 0 155 63.5t64 153.5zM1071 563q0 -121 -65 -222.5t-150 -125.5q63 -34 100 -113t37 -178q0 -149 -120.5 -261t-280.5 -112q-194 0 -299 101.5t-105 292.5h263
q0 -63 39.5 -100.5t101.5 -37.5q59 0 99 41.5t40 96.5q0 68 -42.5 106.5t-117.5 38.5q-201 0 -330.5 129.5t-129.5 335.5q0 122 61.5 225t153.5 129q-65 45 -96 119.5t-31 185.5q0 149 115.5 256t275.5 107q189 0 286 -99t97 -294h-262q0 66 -31.5 101.5t-89.5 35.5
q-59 0 -94 -36t-35 -91q0 -69 43 -112.5t106 -43.5q211 0 336 -130.5t125 -344.5z" />
    <glyph glyph-name="dieresis" unicode="&#xa8;" horiz-adv-x="819" 
d="M352 1278q0 -57 -36.5 -94t-92.5 -37q-55 0 -93 38t-38 93q0 51 39.5 90t91.5 39q54 0 91.5 -37.5t37.5 -91.5zM727 1278q0 -57 -36.5 -94t-92.5 -37q-55 0 -93 38t-38 93q0 51 39.5 90t91.5 39q54 0 91.5 -37.5t37.5 -91.5z" />
    <glyph glyph-name="copyright" unicode="&#xa9;" horiz-adv-x="1638" 
d="M1174 373q-66 -48 -150.5 -74.5t-169.5 -26.5q-225 0 -360.5 141.5t-135.5 372.5q0 226 138 368t358 142q90 0 173 -28t147 -80v-242q-74 71 -154 108.5t-158 37.5q-142 0 -215.5 -77.5t-73.5 -228.5q0 -145 74 -227t205 -82q96 0 173 32t149 101v-237zM1501 772
q0 283 -199.5 482.5t-482.5 199.5q-282 0 -482 -199.5t-200 -482.5t200 -482.5t482 -199.5q283 0 482.5 199.5t199.5 482.5zM1624 772q0 -333 -235.5 -569t-569.5 -236q-333 0 -569 236t-236 569t236 569t569 236q334 0 569.5 -236t235.5 -569z" />
    <glyph glyph-name="ordfeminine" unicode="&#xaa;" horiz-adv-x="694" 
d="M428 1251q0 59 -28 94t-74 35q-48 0 -77.5 -35t-29.5 -94q0 -57 29 -90t78 -33q47 0 74.5 32.5t27.5 90.5zM623 954h-195v56q-22 -32 -56.5 -49t-76.5 -17q-128 0 -199 81.5t-71 225.5t73.5 229t196.5 85q41 0 76.5 -19t56.5 -53v51h195v-590z" />
    <glyph glyph-name="guillemotleft" unicode="&#xab;" horiz-adv-x="1053" 
d="M571 109l-178 -109l-299 504l299 502l178 -109l-243 -393zM981 109l-178 -109l-299 504l299 502l178 -109l-244 -393z" />
    <glyph glyph-name="logicalnot" unicode="&#xac;" 
d="M1090 225h-209v461h-826v205h1035v-666z" />
    <glyph glyph-name="sfthyphen" unicode="&#xad;" horiz-adv-x="676" 
d="M618 383h-559v266h559v-266z" />
    <glyph glyph-name="registered" unicode="&#xae;" horiz-adv-x="1638" 
d="M936 1001q0 64 -30.5 92.5t-100.5 28.5h-57v-227h57q65 0 98 27t33 79zM1206 293h-215l-243 448v-448h-195v983h258q151 0 240.5 -76.5t89.5 -200.5q0 -90 -57 -155t-150 -80zM1501 772q0 283 -199.5 482.5t-482.5 199.5q-282 0 -482 -199.5t-200 -482.5t200 -482.5
t482 -199.5q283 0 482.5 199.5t199.5 482.5zM1624 772q0 -333 -235.5 -569t-569.5 -236q-333 0 -569 236t-236 569t236 569t569 236q334 0 569.5 -236t235.5 -569z" />
    <glyph glyph-name="overscore" unicode="&#xaf;" horiz-adv-x="1024" 
d="M0 1565h1024v-205h-1024v205z" />
    <glyph glyph-name="degree" unicode="&#xb0;" horiz-adv-x="819" 
d="M584 1274q0 72 -51 123t-123 51q-73 0 -125 -51t-52 -123q0 -74 51.5 -125t125.5 -51q72 0 123 52t51 124zM713 1272q0 -125 -89.5 -214t-215.5 -89q-127 0 -214.5 87.5t-87.5 215.5q0 127 88.5 216t215.5 89q125 0 214 -89.5t89 -215.5z" />
    <glyph glyph-name="plusminus" unicode="&#xb1;" 
d="M1130 0h-1075v205h1075v-205zM1130 614h-434v-307h-209v307h-432v205h432v305h209v-305h434v-205z" />
    <glyph glyph-name="twosuperior" unicode="&#xb2;" horiz-adv-x="709" 
d="M674 643h-668l342 410q65 76 93 127t28 92q0 53 -31 80.5t-90 27.5q-57 0 -89 -37.5t-32 -101.5h-194q0 150 84 237t231 87q148 0 237 -78t89 -201q0 -85 -45.5 -169.5t-175.5 -227.5l-56 -62h277v-184z" />
    <glyph glyph-name="threesuperior" unicode="&#xb3;" horiz-adv-x="709" 
d="M668 895q0 -127 -87 -199.5t-243 -72.5q-138 0 -223.5 82t-85.5 206v7h190v-3q0 -52 31.5 -80t91.5 -28q48 0 79.5 29t31.5 71q0 54 -30.5 81.5t-90.5 27.5v174q59 0 88 24t29 72q0 44 -28 69t-77 25q-56 0 -86.5 -20.5t-30.5 -56.5h-184q7 121 87 191.5t216 70.5
q146 0 223.5 -66.5t77.5 -187.5q0 -81 -41 -135t-102 -64q80 -16 122 -71.5t42 -145.5z" />
    <glyph glyph-name="acute" unicode="&#xb4;" horiz-adv-x="778" 
d="M668 1313l-387 -203l-74 117l346 262z" />
    <glyph glyph-name="uni00B5" unicode="&#xb5;" horiz-adv-x="1096" 
d="M1057 242l-43 -267q-3 0 -8 -1q-37 -7 -50 -7q-123 0 -187.5 39t-92.5 133q-46 -92 -96 -132t-125 -40q-52 0 -93.5 35.5t-48.5 78.5l-106 -613h-297l268 1538h297l-69 -398q-13 -71 -20 -136t-7 -112q0 -69 19.5 -100t64.5 -31q70 0 121 77.5t78 228.5l83 471h297
l-90 -515q-2 -14 -7 -41q-17 -104 -17 -133q0 -45 15 -66.5t48 -21.5q20 0 35 3t31 10z" />
    <glyph glyph-name="paragraph" unicode="&#xb6;" horiz-adv-x="1182" 
d="M1073 1401h-112v-1401h-152v1401h-160v-1401h-151v848q-189 0 -300.5 95.5t-111.5 252.5q0 156 111.5 252t296.5 96h579v-143z" />
    <glyph glyph-name="periodcentered" unicode="&#xb7;" horiz-adv-x="592" 
d="M471 793q0 -71 -50 -120.5t-122 -49.5q-71 0 -121.5 50t-50.5 120q0 71 50.5 121.5t121.5 50.5t121.5 -50.5t50.5 -121.5z" />
    <glyph glyph-name="cedilla" unicode="&#xb8;" horiz-adv-x="778" 
d="M584 -168l-295 -324l-109 84l236 365z" />
    <glyph glyph-name="onesuperior" unicode="&#xb9;" horiz-adv-x="709" 
d="M492 643h-205v707h-185l103 194h287v-901z" />
    <glyph glyph-name="ordmasculine" unicode="&#xba;" horiz-adv-x="694" 
d="M465 1255q0 60 -33.5 98t-83.5 38q-51 0 -85 -38t-34 -98t34 -98.5t85 -38.5q53 0 85 37.5t32 99.5zM659 1255q0 -130 -88.5 -220.5t-220.5 -90.5t-223.5 90.5t-91.5 220.5q0 132 90.5 221t224.5 89q131 0 220 -89.5t89 -220.5z" />
    <glyph glyph-name="guillemotright" unicode="&#xbb;" horiz-adv-x="1053" 
d="M549 504l-299 -504l-178 109l243 395l-243 393l178 109zM958 504l-299 -504l-178 109l244 395l-244 393l178 109z" />
    <glyph glyph-name="onequarter" unicode="&#xbc;" horiz-adv-x="1776" 
d="M1364 332v272l-190 -272h190zM492 643h-205v707h-185l103 194h287v-901zM1397 1544l-951 -1544h-149l950 1544h150zM1686 178h-119v-178h-205v178h-444v101l432 622h217v-569h119v-154z" />
    <glyph glyph-name="onehalf" unicode="&#xbd;" horiz-adv-x="1776" 
d="M471 643h-205v707h-184l102 194h287v-901zM1376 1544l-950 -1544h-150l951 1544h149zM1708 0h-668l342 410q65 76 93 127t28 92q0 53 -31 80.5t-90 27.5q-57 0 -88.5 -37.5t-31.5 -101.5h-195q0 150 84.5 237t230.5 87q148 0 237 -78t89 -201q0 -85 -45.5 -169.5
t-175.5 -227.5l-55 -62h276v-184z" />
    <glyph glyph-name="threequarters" unicode="&#xbe;" horiz-adv-x="1776" 
d="M1364 332v272l-190 -272h190zM688 895q0 -127 -87 -199.5t-243 -72.5q-138 0 -223.5 82t-85.5 206v7h191v-3q0 -52 31.5 -80t90.5 -28q48 0 79.5 29t31.5 71q0 54 -30.5 81.5t-90.5 27.5v174q59 0 88 24t29 72q0 44 -27.5 69t-76.5 25q-57 0 -87 -20.5t-30 -56.5h-184
q6 121 86.5 191.5t216.5 70.5q145 0 223 -66.5t78 -187.5q0 -81 -41 -135t-103 -64q81 -16 122.5 -71.5t41.5 -145.5zM1438 1544l-951 -1544h-149l950 1544h150zM1686 178h-119v-178h-205v178h-444v101l432 622h217v-569h119v-154z" />
    <glyph glyph-name="questiondown" unicode="&#xbf;" horiz-adv-x="997" 
d="M946 430q0 -218 -120.5 -340.5t-340.5 -122.5q-200 0 -319 123t-119 328q0 158 81.5 258.5t236.5 132.5v258h284v-444h-108q-97 0 -148 -55.5t-51 -159.5q0 -79 44 -127t116 -48q80 0 121 49.5t41 147.5h282zM678 1405q0 -71 -50 -120.5t-122 -49.5q-71 0 -120.5 49
t-49.5 121t49.5 122t120.5 50t121.5 -51t50.5 -121z" />
    <glyph glyph-name="Agrave" unicode="&#xc0;" horiz-adv-x="1384" 
d="M887 588l-195 657l-194 -657h389zM1395 0h-336l-101 342h-530l-102 -342h-336l524 1544h358zM874 1766l-73 -117l-387 203l114 176z" />
    <glyph glyph-name="Aacute" unicode="&#xc1;" horiz-adv-x="1384" 
d="M887 588l-195 657l-194 -657h389zM1395 0h-336l-101 342h-530l-102 -342h-336l524 1544h358zM971 1852l-387 -203l-74 117l346 262z" />
    <glyph glyph-name="Acircumflex" unicode="&#xc2;" horiz-adv-x="1384" 
d="M887 588l-195 657l-194 -657h389zM1395 0h-336l-101 342h-530l-102 -342h-336l524 1544h358zM1018 1766l-73 -117l-252 137l-252 -137l-74 117l326 254z" />
    <glyph glyph-name="Atilde" unicode="&#xc3;" horiz-adv-x="1384" 
d="M887 588l-195 657l-194 -657h389zM1395 0h-336l-101 342h-530l-102 -342h-336l524 1544h358zM1033 1876q-31 -94 -88.5 -146t-129.5 -52q-32 0 -66.5 12.5t-78.5 40.5q-5 3 -14 9q-65 42 -92 42q-29 0 -51 -21.5t-48 -72.5l-112 70q34 96 88 146t125 50q31 0 65.5 -12
t81.5 -41q5 -3 13 -9q67 -42 94 -42q30 0 50 17.5t50 76.5z" />
    <glyph glyph-name="Adieresis" unicode="&#xc4;" horiz-adv-x="1384" 
d="M887 588l-195 657l-194 -657h389zM1395 0h-336l-101 342h-530l-102 -342h-336l524 1544h358zM635 1817q0 -57 -36.5 -94t-92.5 -37q-55 0 -93 38t-38 93q0 51 39.5 90t91.5 39q54 0 91.5 -37.5t37.5 -91.5zM1010 1817q0 -57 -36.5 -94t-92.5 -37q-55 0 -93 38t-38 93
q0 51 39.5 90t91.5 39q54 0 91.5 -37.5t37.5 -91.5z" />
    <glyph glyph-name="Aring" unicode="&#xc5;" horiz-adv-x="1384" 
d="M887 588l-195 657l-194 -657h389zM1395 0h-336l-101 342h-530l-102 -342h-336l524 1544h358zM780 1858q0 37 -25.5 62.5t-62.5 25.5q-36 0 -61 -25.5t-25 -62.5t24.5 -61.5t61.5 -24.5t62.5 24.5t25.5 61.5zM915 1858q0 -93 -65 -158t-158 -65q-92 0 -156.5 64.5
t-64.5 158.5q0 92 64.5 157.5t156.5 65.5t157.5 -65.5t65.5 -157.5z" />
    <glyph glyph-name="AE" unicode="&#xc6;" horiz-adv-x="1886" 
d="M887 588l-195 657l-194 -657h389zM1896 0h-837l-101 342h-530l-102 -342h-336l524 1544h862l90 -266h-503l120 -360h504l90 -267h-503l129 -385h503z" />
    <glyph glyph-name="Ccedilla" unicode="&#xc7;" horiz-adv-x="1231" 
d="M1190 84q-62 -46 -182 -81.5t-217 -35.5q-348 0 -549 218.5t-201 588.5q0 352 207.5 577.5t548.5 225.5q127 0 220 -24t173 -78v-334q-79 70 -174 107.5t-191 37.5q-214 0 -342.5 -140t-128.5 -372q0 -238 117.5 -377t323.5 -139q123 0 219 41t176 127v-342zM963 -168
l-295 -324l-109 84l236 365z" />
    <glyph glyph-name="Egrave" unicode="&#xc8;" horiz-adv-x="999" 
d="M897 0h-774v1544h774v-266h-467v-360h467v-267h-467v-385h467v-266zM684 1766l-73 -117l-387 203l114 176z" />
    <glyph glyph-name="Eacute" unicode="&#xc9;" horiz-adv-x="999" 
d="M897 0h-774v1544h774v-266h-467v-360h467v-267h-467v-385h467v-266zM781 1852l-387 -203l-74 117l346 262z" />
    <glyph glyph-name="Ecircumflex" unicode="&#xca;" horiz-adv-x="999" 
d="M897 0h-774v1544h774v-266h-467v-360h467v-267h-467v-385h467v-266zM827 1766l-73 -117l-252 137l-252 -137l-74 117l326 254z" />
    <glyph glyph-name="Edieresis" unicode="&#xcb;" horiz-adv-x="999" 
d="M897 0h-774v1544h774v-266h-467v-360h467v-267h-467v-385h467v-266zM444 1817q0 -57 -36.5 -94t-92.5 -37q-55 0 -93 38t-38 93q0 51 39.5 90t91.5 39q54 0 91.5 -37.5t37.5 -91.5zM819 1817q0 -57 -36.5 -94t-92.5 -37q-55 0 -93 38t-38 93q0 51 39.5 90t91.5 39
q54 0 91.5 -37.5t37.5 -91.5z" />
    <glyph glyph-name="Igrave" unicode="&#xcc;" horiz-adv-x="520" 
d="M412 0h-301v1544h301v-1544zM442 1766l-73 -117l-387 203l114 176z" />
    <glyph glyph-name="Iacute" unicode="&#xcd;" horiz-adv-x="520" 
d="M412 0h-301v1544h301v-1544zM539 1852l-387 -203l-74 117l346 262z" />
    <glyph glyph-name="Icircumflex" unicode="&#xce;" horiz-adv-x="520" 
d="M412 0h-301v1544h301v-1544zM585 1766l-73 -117l-252 137l-252 -137l-74 117l326 254z" />
    <glyph glyph-name="Idieresis" unicode="&#xcf;" horiz-adv-x="520" 
d="M412 0h-301v1544h301v-1544zM202 1817q0 -57 -36.5 -94t-92.5 -37q-55 0 -93 38t-38 93q0 51 39.5 90t91.5 39q54 0 91.5 -37.5t37.5 -91.5zM577 1817q0 -57 -36.5 -94t-92.5 -37q-55 0 -93 38t-38 93q0 51 39.5 90t91.5 39q54 0 91.5 -37.5t37.5 -91.5z" />
    <glyph glyph-name="Eth" unicode="&#xd0;" horiz-adv-x="1323" 
d="M948 772q0 239 -124 372.5t-347 133.5h-74v-420h252v-229h-252v-363h74q222 0 346.5 132.5t124.5 373.5zM1262 770q0 -366 -218 -568t-610 -202h-332v629h-102v229h102v686h308q412 0 632 -198.5t220 -575.5z" />
    <glyph glyph-name="Ntilde" unicode="&#xd1;" horiz-adv-x="1554" 
d="M1432 0h-295l-719 1042v-1042h-295v1544h295l719 -1038v1038h295v-1544zM1119 1876q-31 -94 -88.5 -146t-129.5 -52q-32 0 -66.5 12.5t-78.5 40.5q-5 3 -14 9q-65 42 -92 42q-29 0 -51 -21.5t-48 -72.5l-112 70q34 96 88 146t125 50q31 0 65.5 -12t81.5 -41q5 -3 13 -9
q67 -42 94 -42q30 0 50 17.5t50 76.5z" />
    <glyph glyph-name="Ograve" unicode="&#xd2;" horiz-adv-x="1602" 
d="M1249 772q0 224 -124.5 366t-323.5 142q-200 0 -324.5 -142t-124.5 -366t124.5 -366t324.5 -142q199 0 323.5 142t124.5 366zM1561 772q0 -345 -218.5 -575t-541.5 -230t-541.5 230t-218.5 575t218.5 575t541.5 230t541.5 -230t218.5 -575zM983 1766l-73 -117l-387 203
l114 176z" />
    <glyph glyph-name="Oacute" unicode="&#xd3;" horiz-adv-x="1602" 
d="M1249 772q0 224 -124.5 366t-323.5 142q-200 0 -324.5 -142t-124.5 -366t124.5 -366t324.5 -142q199 0 323.5 142t124.5 366zM1561 772q0 -345 -218.5 -575t-541.5 -230t-541.5 230t-218.5 575t218.5 575t541.5 230t541.5 -230t218.5 -575zM1080 1852l-387 -203l-74 117
l346 262z" />
    <glyph glyph-name="Ocircumflex" unicode="&#xd4;" horiz-adv-x="1602" 
d="M1249 772q0 224 -124.5 366t-323.5 142q-200 0 -324.5 -142t-124.5 -366t124.5 -366t324.5 -142q199 0 323.5 142t124.5 366zM1561 772q0 -345 -218.5 -575t-541.5 -230t-541.5 230t-218.5 575t218.5 575t541.5 230t541.5 -230t218.5 -575zM1126 1766l-73 -117l-252 137
l-252 -137l-74 117l326 254z" />
    <glyph glyph-name="Otilde" unicode="&#xd5;" horiz-adv-x="1602" 
d="M1249 772q0 224 -124.5 366t-323.5 142q-200 0 -324.5 -142t-124.5 -366t124.5 -366t324.5 -142q199 0 323.5 142t124.5 366zM1561 772q0 -345 -218.5 -575t-541.5 -230t-541.5 230t-218.5 575t218.5 575t541.5 230t541.5 -230t218.5 -575zM1141 1876q-31 -94 -88.5 -146
t-129.5 -52q-32 0 -66.5 12.5t-78.5 40.5q-5 3 -14 9q-65 42 -92 42q-29 0 -51 -21.5t-48 -72.5l-112 70q34 96 88 146t125 50q31 0 65.5 -12t81.5 -41q5 -3 13 -9q67 -42 94 -42q30 0 50 17.5t50 76.5z" />
    <glyph glyph-name="Odieresis" unicode="&#xd6;" horiz-adv-x="1602" 
d="M1249 772q0 224 -124.5 366t-323.5 142q-200 0 -324.5 -142t-124.5 -366t124.5 -366t324.5 -142q199 0 323.5 142t124.5 366zM1561 772q0 -345 -218.5 -575t-541.5 -230t-541.5 230t-218.5 575t218.5 575t541.5 230t541.5 -230t218.5 -575zM743 1817q0 -57 -36.5 -94
t-92.5 -37q-55 0 -93 38t-38 93q0 51 39.5 90t91.5 39q54 0 91.5 -37.5t37.5 -91.5zM1118 1817q0 -57 -36.5 -94t-92.5 -37q-55 0 -93 38t-38 93q0 51 39.5 90t91.5 39q54 0 91.5 -37.5t37.5 -91.5z" />
    <glyph glyph-name="multiply" unicode="&#xd7;" 
d="M1126 178l-147 -147l-389 387l-369 -371l-145 146l370 370l-387 385l148 148l387 -385l369 368l145 -143l-371 -371z" />
    <glyph glyph-name="Oslash" unicode="&#xd8;" horiz-adv-x="1602" 
d="M1249 772q0 80 -16.5 151.5t-48.5 131.5l-674 -684q57 -52 131 -79.5t160 -27.5q199 0 323.5 142t124.5 366zM1092 1171q-60 54 -134 81.5t-157 27.5q-200 0 -324.5 -142t-124.5 -366q0 -77 17.5 -149t50.5 -134zM1595 1473l-194 -197q78 -105 119 -234t41 -270
q0 -345 -218.5 -575t-541.5 -230q-141 0 -269.5 49t-230.5 142l-188 -191l-105 105l193 194q-78 105 -119 234.5t-41 271.5q0 345 218.5 575t541.5 230q142 0 270.5 -49t231.5 -142l188 191z" />
    <glyph glyph-name="Ugrave" unicode="&#xd9;" horiz-adv-x="1352" 
d="M1239 600q0 -307 -145.5 -470t-417.5 -163q-268 0 -415.5 167.5t-147.5 465.5v944h311v-997q0 -149 64.5 -226t187.5 -77q128 0 190 75t62 228v997h311v-944zM858 1766l-73 -117l-387 203l114 176z" />
    <glyph glyph-name="Uacute" unicode="&#xda;" horiz-adv-x="1352" 
d="M1239 600q0 -307 -145.5 -470t-417.5 -163q-268 0 -415.5 167.5t-147.5 465.5v944h311v-997q0 -149 64.5 -226t187.5 -77q128 0 190 75t62 228v997h311v-944zM955 1852l-387 -203l-74 117l346 262z" />
    <glyph glyph-name="Ucircumflex" unicode="&#xdb;" horiz-adv-x="1352" 
d="M1239 600q0 -307 -145.5 -470t-417.5 -163q-268 0 -415.5 167.5t-147.5 465.5v944h311v-997q0 -149 64.5 -226t187.5 -77q128 0 190 75t62 228v997h311v-944zM1001 1766l-73 -117l-252 137l-252 -137l-74 117l326 254z" />
    <glyph glyph-name="Udieresis" unicode="&#xdc;" horiz-adv-x="1352" 
d="M1239 600q0 -307 -145.5 -470t-417.5 -163q-268 0 -415.5 167.5t-147.5 465.5v944h311v-997q0 -149 64.5 -226t187.5 -77q128 0 190 75t62 228v997h311v-944zM618 1817q0 -57 -36.5 -94t-92.5 -37q-55 0 -93 38t-38 93q0 51 39.5 90t91.5 39q54 0 91.5 -37.5t37.5 -91.5z
M993 1817q0 -57 -36.5 -94t-92.5 -37q-55 0 -93 38t-38 93q0 51 39.5 90t91.5 39q54 0 91.5 -37.5t37.5 -91.5z" />
    <glyph glyph-name="Yacute" unicode="&#xdd;" horiz-adv-x="1202" 
d="M1212 1544l-460 -860v-684h-301v684l-461 860h344l272 -583l264 583h342zM881 1852l-387 -203l-74 117l346 262z" />
    <glyph glyph-name="Thorn" unicode="&#xde;" horiz-adv-x="1081" 
d="M719 791q0 110 -62 167.5t-182 57.5h-51v-453h51q129 0 186.5 53.5t57.5 174.5zM1030 791q0 -216 -152 -345t-411 -129h-43v-317h-301v1544h301v-282h43q273 0 418 -122t145 -349z" />
    <glyph glyph-name="germandbls" unicode="&#xdf;" horiz-adv-x="1149" 
d="M1112 496q0 -226 -148 -377.5t-374 -151.5q-22 0 -44 1.5t-44 5.5v253q25 -3 45 -4.5t41 -1.5q107 0 170 74.5t63 200.5q0 119 -66.5 196.5t-166.5 77.5h-86v236q106 0 156.5 58.5t50.5 182.5q0 99 -44 157t-116 58q-70 0 -104.5 -44t-34.5 -132v-1286h-287v1307
q0 196 105.5 302.5t297.5 106.5q211 0 337 -130t126 -339q0 -100 -40 -183t-118 -142q134 -53 207.5 -164t73.5 -262z" />
    <glyph glyph-name="agrave" unicode="&#xe0;" horiz-adv-x="1157" 
d="M768 502q0 119 -63.5 200.5t-157.5 81.5t-156.5 -81t-62.5 -201t62 -200.5t157 -80.5t158 81t63 200zM1055 0h-287v115q-44 -73 -112.5 -110.5t-157.5 -37.5q-207 0 -334 150t-127 385t127 385.5t334 150.5q95 0 166 -38.5t104 -108.5v115h287v-1006zM761 1227l-73 -117
l-387 203l114 176z" />
    <glyph glyph-name="aacute" unicode="&#xe1;" horiz-adv-x="1157" 
d="M768 502q0 119 -63.5 200.5t-157.5 81.5t-156.5 -81t-62.5 -201t62 -200.5t157 -80.5t158 81t63 200zM1055 0h-287v115q-44 -73 -112.5 -110.5t-157.5 -37.5q-207 0 -334 150t-127 385t127 385.5t334 150.5q95 0 166 -38.5t104 -108.5v115h287v-1006zM858 1313l-387 -203
l-74 117l346 262z" />
    <glyph glyph-name="acircumflex" unicode="&#xe2;" horiz-adv-x="1157" 
d="M768 502q0 119 -63.5 200.5t-157.5 81.5t-156.5 -81t-62.5 -201t62 -200.5t157 -80.5t158 81t63 200zM1055 0h-287v115q-44 -73 -112.5 -110.5t-157.5 -37.5q-207 0 -334 150t-127 385t127 385.5t334 150.5q95 0 166 -38.5t104 -108.5v115h287v-1006zM905 1227l-73 -117
l-252 137l-252 -137l-74 117l326 254z" />
    <glyph glyph-name="atilde" unicode="&#xe3;" horiz-adv-x="1157" 
d="M768 502q0 119 -63.5 200.5t-157.5 81.5t-156.5 -81t-62.5 -201t62 -200.5t157 -80.5t158 81t63 200zM1055 0h-287v115q-44 -73 -112.5 -110.5t-157.5 -37.5q-207 0 -334 150t-127 385t127 385.5t334 150.5q95 0 166 -38.5t104 -108.5v115h287v-1006zM920 1337
q-31 -94 -88.5 -146t-129.5 -52q-32 0 -66.5 12.5t-78.5 40.5q-5 3 -14 9q-65 42 -92 42q-29 0 -51 -21.5t-48 -72.5l-112 70q34 96 88 146t125 50q31 0 65.5 -12t81.5 -41q5 -3 13 -9q67 -42 94 -42q30 0 50 17.5t50 76.5z" />
    <glyph glyph-name="adieresis" unicode="&#xe4;" horiz-adv-x="1157" 
d="M768 502q0 119 -63.5 200.5t-157.5 81.5t-156.5 -81t-62.5 -201t62 -200.5t157 -80.5t158 81t63 200zM1055 0h-287v115q-44 -73 -112.5 -110.5t-157.5 -37.5q-207 0 -334 150t-127 385t127 385.5t334 150.5q95 0 166 -38.5t104 -108.5v115h287v-1006zM522 1278
q0 -57 -36.5 -94t-92.5 -37q-55 0 -93 38t-38 93q0 51 39.5 90t91.5 39q54 0 91.5 -37.5t37.5 -91.5zM897 1278q0 -57 -36.5 -94t-92.5 -37q-55 0 -93 38t-38 93q0 51 39.5 90t91.5 39q54 0 91.5 -37.5t37.5 -91.5z" />
    <glyph glyph-name="aring" unicode="&#xe5;" horiz-adv-x="1157" 
d="M768 502q0 119 -63.5 200.5t-157.5 81.5t-156.5 -81t-62.5 -201t62 -200.5t157 -80.5t158 81t63 200zM1055 0h-287v115q-44 -73 -112.5 -110.5t-157.5 -37.5q-207 0 -334 150t-127 385t127 385.5t334 150.5q95 0 166 -38.5t104 -108.5v115h287v-1006zM667 1319
q0 37 -25.5 62.5t-62.5 25.5q-36 0 -61 -25.5t-25 -62.5t24.5 -61.5t61.5 -24.5t62.5 24.5t25.5 61.5zM802 1319q0 -93 -65 -158t-158 -65q-92 0 -156.5 64.5t-64.5 158.5q0 92 64.5 157.5t156.5 65.5t157.5 -65.5t65.5 -157.5z" />
    <glyph glyph-name="ae" unicode="&#xe6;" horiz-adv-x="1622" 
d="M668 334q0 57 -49.5 93t-133.5 36q-80 0 -129 -36.5t-49 -96.5q0 -62 42 -95.5t118 -33.5q96 0 148.5 34.5t52.5 98.5zM1313 592q-7 93 -57.5 153t-125.5 60t-124 -58t-58 -155h365zM1597 504q0 -37 -0.5 -55t-3.5 -33h-645q8 -96 63 -155.5t136 -59.5q62 0 106 31t74 96
l229 -115q-62 -125 -165 -185.5t-252 -60.5q-115 0 -199.5 40t-138.5 120q-84 -82 -177 -121t-202 -39q-174 0 -285.5 98.5t-111.5 247.5q0 138 104 232t260 94q83 0 146.5 -16.5t132.5 -55.5v25q0 100 -69 156.5t-193 56.5q-80 0 -147 -23.5t-142 -76.5v256
q51 38 131.5 57.5t187.5 19.5q128 0 222 -40t155 -119q56 78 137 118.5t183 40.5q211 0 337.5 -148t126.5 -386z" />
    <glyph glyph-name="ccedilla" unicode="&#xe7;" horiz-adv-x="862" 
d="M831 33q-61 -37 -115 -51.5t-126 -14.5q-252 0 -402.5 146t-150.5 389q0 239 151.5 387.5t401.5 148.5q73 0 127.5 -14t113.5 -47v-287q-39 42 -101 68t-122 26q-121 0 -200.5 -80t-79.5 -200q0 -130 75.5 -206.5t204.5 -76.5q64 0 123.5 26t99.5 72v-286zM754 -168
l-295 -324l-109 84l236 365z" />
    <glyph glyph-name="egrave" unicode="&#xe8;" horiz-adv-x="1026" 
d="M717 592q-19 99 -73.5 156t-131.5 57t-132 -58t-73 -155h410zM1001 504q0 -37 -0.5 -55t-3.5 -33h-690q21 -96 82 -155.5t139 -59.5q67 0 121.5 34t81.5 93l230 -115q-60 -119 -173 -182.5t-268 -63.5q-224 0 -359.5 147.5t-135.5 389.5q0 226 141 380t348 154
q215 0 351 -151t136 -383zM696 1227l-73 -117l-387 203l114 176z" />
    <glyph glyph-name="eacute" unicode="&#xe9;" horiz-adv-x="1026" 
d="M717 592q-19 99 -73.5 156t-131.5 57t-132 -58t-73 -155h410zM1001 504q0 -37 -0.5 -55t-3.5 -33h-690q21 -96 82 -155.5t139 -59.5q67 0 121.5 34t81.5 93l230 -115q-60 -119 -173 -182.5t-268 -63.5q-224 0 -359.5 147.5t-135.5 389.5q0 226 141 380t348 154
q215 0 351 -151t136 -383zM793 1313l-387 -203l-74 117l346 262z" />
    <glyph glyph-name="ecircumflex" unicode="&#xea;" horiz-adv-x="1026" 
d="M717 592q-19 99 -73.5 156t-131.5 57t-132 -58t-73 -155h410zM1001 504q0 -37 -0.5 -55t-3.5 -33h-690q21 -96 82 -155.5t139 -59.5q67 0 121.5 34t81.5 93l230 -115q-60 -119 -173 -182.5t-268 -63.5q-224 0 -359.5 147.5t-135.5 389.5q0 226 141 380t348 154
q215 0 351 -151t136 -383zM839 1227l-73 -117l-252 137l-252 -137l-74 117l326 254z" />
    <glyph glyph-name="edieresis" unicode="&#xeb;" horiz-adv-x="1026" 
d="M717 592q-19 99 -73.5 156t-131.5 57t-132 -58t-73 -155h410zM1001 504q0 -37 -0.5 -55t-3.5 -33h-690q21 -96 82 -155.5t139 -59.5q67 0 121.5 34t81.5 93l230 -115q-60 -119 -173 -182.5t-268 -63.5q-224 0 -359.5 147.5t-135.5 389.5q0 226 141 380t348 154
q215 0 351 -151t136 -383zM456 1278q0 -57 -36.5 -94t-92.5 -37q-55 0 -93 38t-38 93q0 51 39.5 90t91.5 39q54 0 91.5 -37.5t37.5 -91.5zM831 1278q0 -57 -36.5 -94t-92.5 -37q-55 0 -93 38t-38 93q0 51 39.5 90t91.5 39q54 0 91.5 -37.5t37.5 -91.5z" />
    <glyph glyph-name="igrave" unicode="&#xec;" horiz-adv-x="518" 
d="M403 0h-286v1006h286v-1006zM442 1227l-73 -117l-387 203l114 176z" />
    <glyph glyph-name="iacute" unicode="&#xed;" horiz-adv-x="518" 
d="M403 0h-286v1006h286v-1006zM539 1313l-387 -203l-74 117l346 262z" />
    <glyph glyph-name="icircumflex" unicode="&#xee;" horiz-adv-x="518" 
d="M403 0h-286v1006h286v-1006zM585 1227l-73 -117l-252 137l-252 -137l-74 117l326 254z" />
    <glyph glyph-name="idieresis" unicode="&#xef;" horiz-adv-x="518" 
d="M403 0h-286v1006h286v-1006zM202 1278q0 -57 -36.5 -94t-92.5 -37q-55 0 -93 38t-38 93q0 51 39.5 90t91.5 39q54 0 91.5 -37.5t37.5 -91.5zM577 1278q0 -57 -36.5 -94t-92.5 -37q-55 0 -93 38t-38 93q0 51 39.5 90t91.5 39q54 0 91.5 -37.5t37.5 -91.5z" />
    <glyph glyph-name="eth" unicode="&#xf0;" horiz-adv-x="1122" 
d="M795 504q0 116 -68.5 198t-165.5 82t-165 -82t-68 -198q0 -117 68 -200t165 -83t165.5 83t68.5 200zM1085 545q0 -263 -138.5 -420.5t-383.5 -157.5q-226 0 -376 153.5t-150 383.5q0 234 146 384t380 150q48 0 82.5 -8.5t73.5 -30.5q-25 68 -80.5 143.5t-134.5 149.5
l-348 -170l-64 129l291 142q-53 39 -107.5 71t-107.5 56l117 196q101 -37 192 -90.5t172 -122.5l273 131l61 -129l-223 -108q157 -172 241 -392t84 -460z" />
    <glyph glyph-name="ntilde" unicode="&#xf1;" horiz-adv-x="1106" 
d="M1008 0h-285v592q0 114 -34.5 165.5t-110.5 51.5q-83 0 -136 -78t-53 -215v-516h-287v1006h287v-117q41 73 119.5 111t185.5 38q155 0 234.5 -103.5t79.5 -305.5v-629zM893 1337q-31 -94 -88.5 -146t-129.5 -52q-32 0 -66.5 12.5t-78.5 40.5q-5 3 -14 9q-65 42 -92 42
q-29 0 -51 -21.5t-48 -72.5l-112 70q34 96 88 146t125 50q31 0 65.5 -12t81.5 -41q5 -3 13 -9q67 -42 94 -42q30 0 50 17.5t50 76.5z" />
    <glyph glyph-name="ograve" unicode="&#xf2;" horiz-adv-x="1122" 
d="M795 504q0 120 -67.5 200t-166.5 80q-103 0 -168 -78.5t-65 -201.5q0 -125 65.5 -204t167.5 -79q107 0 170.5 78t63.5 205zM1085 504q0 -228 -148.5 -382.5t-373.5 -154.5q-226 0 -376 154t-150 383q0 231 149 382.5t377 151.5q225 0 373.5 -153.5t148.5 -380.5z
M743 1227l-73 -117l-387 203l114 176z" />
    <glyph glyph-name="oacute" unicode="&#xf3;" horiz-adv-x="1122" 
d="M795 504q0 120 -67.5 200t-166.5 80q-103 0 -168 -78.5t-65 -201.5q0 -125 65.5 -204t167.5 -79q107 0 170.5 78t63.5 205zM1085 504q0 -228 -148.5 -382.5t-373.5 -154.5q-226 0 -376 154t-150 383q0 231 149 382.5t377 151.5q225 0 373.5 -153.5t148.5 -380.5z
M840 1313l-387 -203l-74 117l346 262z" />
    <glyph glyph-name="ocircumflex" unicode="&#xf4;" horiz-adv-x="1122" 
d="M795 504q0 120 -67.5 200t-166.5 80q-103 0 -168 -78.5t-65 -201.5q0 -125 65.5 -204t167.5 -79q107 0 170.5 78t63.5 205zM1085 504q0 -228 -148.5 -382.5t-373.5 -154.5q-226 0 -376 154t-150 383q0 231 149 382.5t377 151.5q225 0 373.5 -153.5t148.5 -380.5z
M887 1227l-73 -117l-252 137l-252 -137l-74 117l326 254z" />
    <glyph glyph-name="otilde" unicode="&#xf5;" horiz-adv-x="1122" 
d="M795 504q0 120 -67.5 200t-166.5 80q-103 0 -168 -78.5t-65 -201.5q0 -125 65.5 -204t167.5 -79q107 0 170.5 78t63.5 205zM1085 504q0 -228 -148.5 -382.5t-373.5 -154.5q-226 0 -376 154t-150 383q0 231 149 382.5t377 151.5q225 0 373.5 -153.5t148.5 -380.5z
M902 1337q-31 -94 -88.5 -146t-129.5 -52q-32 0 -66.5 12.5t-78.5 40.5q-5 3 -14 9q-65 42 -92 42q-29 0 -51 -21.5t-48 -72.5l-112 70q34 96 88 146t125 50q31 0 65.5 -12t81.5 -41q5 -3 13 -9q67 -42 94 -42q30 0 50 17.5t50 76.5z" />
    <glyph glyph-name="odieresis" unicode="&#xf6;" horiz-adv-x="1122" 
d="M795 504q0 120 -67.5 200t-166.5 80q-103 0 -168 -78.5t-65 -201.5q0 -125 65.5 -204t167.5 -79q107 0 170.5 78t63.5 205zM1085 504q0 -228 -148.5 -382.5t-373.5 -154.5q-226 0 -376 154t-150 383q0 231 149 382.5t377 151.5q225 0 373.5 -153.5t148.5 -380.5z
M504 1278q0 -57 -36.5 -94t-92.5 -37q-55 0 -93 38t-38 93q0 51 39.5 90t91.5 39q54 0 91.5 -37.5t37.5 -91.5zM879 1278q0 -57 -36.5 -94t-92.5 -37q-55 0 -93 38t-38 93q0 51 39.5 90t91.5 39q54 0 91.5 -37.5t37.5 -91.5z" />
    <glyph glyph-name="divide" unicode="&#xf7;" 
d="M743 176q0 -61 -44.5 -105t-106.5 -44q-63 0 -107.5 43t-44.5 106t44.5 107.5t107.5 44.5q62 0 106.5 -45t44.5 -107zM1130 461h-1075v205h1075v-205zM743 950q0 -62 -44 -106.5t-107 -44.5t-107.5 44t-44.5 107q0 64 44.5 108t107.5 44q62 0 106.5 -44.5t44.5 -107.5z
" />
    <glyph glyph-name="oslash" unicode="&#xf8;" horiz-adv-x="1155" 
d="M827 504q0 35 -6.5 69.5t-19.5 65.5l-371 -371q31 -23 68 -35t80 -12q117 0 183 75.5t66 207.5zM725 737q-32 24 -69 35.5t-78 11.5q-114 0 -182 -77t-68 -203q0 -37 6.5 -71.5t19.5 -65.5zM1118 504q0 -234 -151 -385.5t-387 -151.5q-100 0 -186.5 27.5t-155.5 81.5
l-109 -109l-86 86l107 109q-55 70 -84 158t-29 184q0 231 150.5 382.5t392.5 151.5q97 0 182 -27t156 -81l108 108l86 -86l-106 -108q54 -70 83 -157.5t29 -182.5z" />
    <glyph glyph-name="ugrave" unicode="&#xf9;" horiz-adv-x="1096" 
d="M997 451q0 -251 -108 -367.5t-340 -116.5q-242 0 -346.5 113t-104.5 371v555h287v-586q0 -102 40 -150.5t124 -48.5q79 0 120.5 51t41.5 148v586h286v-555zM731 1227l-73 -117l-387 203l114 176z" />
    <glyph glyph-name="uacute" unicode="&#xfa;" horiz-adv-x="1096" 
d="M997 451q0 -251 -108 -367.5t-340 -116.5q-242 0 -346.5 113t-104.5 371v555h287v-586q0 -102 40 -150.5t124 -48.5q79 0 120.5 51t41.5 148v586h286v-555zM828 1313l-387 -203l-74 117l346 262z" />
    <glyph glyph-name="ucircumflex" unicode="&#xfb;" horiz-adv-x="1096" 
d="M997 451q0 -251 -108 -367.5t-340 -116.5q-242 0 -346.5 113t-104.5 371v555h287v-586q0 -102 40 -150.5t124 -48.5q79 0 120.5 51t41.5 148v586h286v-555zM874 1227l-73 -117l-252 137l-252 -137l-74 117l326 254z" />
    <glyph glyph-name="udieresis" unicode="&#xfc;" horiz-adv-x="1096" 
d="M997 451q0 -251 -108 -367.5t-340 -116.5q-242 0 -346.5 113t-104.5 371v555h287v-586q0 -102 40 -150.5t124 -48.5q79 0 120.5 51t41.5 148v586h286v-555zM491 1278q0 -57 -36.5 -94t-92.5 -37q-55 0 -93 38t-38 93q0 51 39.5 90t91.5 39q54 0 91.5 -37.5t37.5 -91.5z
M866 1278q0 -57 -36.5 -94t-92.5 -37q-55 0 -93 38t-38 93q0 51 39.5 90t91.5 39q54 0 91.5 -37.5t37.5 -91.5z" />
    <glyph glyph-name="yacute" unicode="&#xfd;" horiz-adv-x="1065" 
d="M1065 1006l-563 -1538h-318l211 557l-381 981h318l209 -648l207 648h317zM826 1313l-387 -203l-74 117l346 262z" />
    <glyph glyph-name="thorn" unicode="&#xfe;" horiz-adv-x="1157" 
d="M834 504q0 118 -64 199t-160 81q-95 0 -158 -80.5t-63 -199.5q0 -120 63.5 -201.5t157.5 -81.5q95 0 159.5 82t64.5 201zM1120 504q0 -235 -127 -386t-334 -151q-95 0 -166 39t-104 109v-647h-287v2222h287v-799q44 72 112.5 109.5t157.5 37.5q207 0 334 -149.5
t127 -384.5z" />
    <glyph glyph-name="ydieresis" unicode="&#xff;" horiz-adv-x="1065" 
d="M1065 1006l-563 -1538h-318l211 557l-381 981h318l209 -648l207 648h317zM489 1278q0 -57 -36.5 -94t-92.5 -37q-55 0 -93 38t-38 93q0 51 39.5 90t91.5 39q54 0 91.5 -37.5t37.5 -91.5zM864 1278q0 -57 -36.5 -94t-92.5 -37q-55 0 -93 38t-38 93q0 51 39.5 90t91.5 39
q54 0 91.5 -37.5t37.5 -91.5z" />
    <glyph glyph-name="Amacron" unicode="&#x100;" horiz-adv-x="1384" 
d="M887 588l-195 657l-194 -657h389zM1395 0h-336l-101 342h-530l-102 -342h-336l524 1544h358zM979 1727h-573v176h573v-176z" />
    <glyph glyph-name="amacron" unicode="&#x101;" horiz-adv-x="1157" 
d="M768 502q0 119 -63.5 200.5t-157.5 81.5t-156.5 -81t-62.5 -201t62 -200.5t157 -80.5t158 81t63 200zM1055 0h-287v115q-44 -73 -112.5 -110.5t-157.5 -37.5q-207 0 -334 150t-127 385t127 385.5t334 150.5q95 0 166 -38.5t104 -108.5v115h287v-1006zM866 1188h-573v176
h573v-176z" />
    <glyph glyph-name="Abreve" unicode="&#x102;" horiz-adv-x="1384" 
d="M887 588l-195 657l-194 -657h389zM1395 0h-336l-101 342h-530l-102 -342h-336l524 1544h358zM1010 1971q-34 -141 -110 -207t-205 -66q-132 0 -215.5 72t-102.5 201l121 49q17 -70 68.5 -109t128.5 -39q76 0 126.5 39t67.5 109z" />
    <glyph glyph-name="abreve" unicode="&#x103;" horiz-adv-x="1157" 
d="M768 502q0 119 -63.5 200.5t-157.5 81.5t-156.5 -81t-62.5 -201t62 -200.5t157 -80.5t158 81t63 200zM1055 0h-287v115q-44 -73 -112.5 -110.5t-157.5 -37.5q-207 0 -334 150t-127 385t127 385.5t334 150.5q95 0 166 -38.5t104 -108.5v115h287v-1006zM897 1432
q-34 -141 -110 -207t-205 -66q-132 0 -215.5 72t-102.5 201l121 49q17 -70 68.5 -109t128.5 -39q76 0 126.5 39t67.5 109z" />
    <glyph glyph-name="Aogonek" unicode="&#x104;" horiz-adv-x="1384" 
d="M887 588l-195 657l-194 -657h389zM1395 -479q-190 0 -261 43t-71 162q0 65 41 136.5t117 137.5h-162l-101 342h-530l-102 -342h-336l524 1544h358l523 -1544h-37q-54 -54 -80.5 -104.5t-26.5 -100.5q0 -58 32.5 -79t111.5 -21v-174z" />
    <glyph glyph-name="aogonek" unicode="&#x105;" horiz-adv-x="1157" 
d="M768 502q0 119 -63.5 200.5t-157.5 81.5t-156.5 -81t-62.5 -201t62 -200.5t157 -80.5t158 81t63 200zM1055 -479q-190 0 -261 43t-71 162q0 65 41 136.5t117 137.5h-113v115q-44 -73 -112.5 -110.5t-157.5 -37.5q-207 0 -334 150t-127 385t127 385.5t334 150.5
q95 0 166 -38.5t104 -108.5v115h287v-1006h-37q-54 -54 -80.5 -104.5t-26.5 -100.5q0 -58 32.5 -79t111.5 -21v-174z" />
    <glyph glyph-name="Cacute" unicode="&#x106;" horiz-adv-x="1231" 
d="M1190 84q-62 -46 -182 -81.5t-217 -35.5q-348 0 -549 218.5t-201 588.5q0 352 207.5 577.5t548.5 225.5q127 0 220 -24t173 -78v-334q-79 70 -174 107.5t-191 37.5q-214 0 -342.5 -140t-128.5 -372q0 -238 117.5 -377t323.5 -139q123 0 219 41t176 127v-342zM1074 1852
l-387 -203l-74 117l346 262z" />
    <glyph glyph-name="cacute" unicode="&#x107;" horiz-adv-x="862" 
d="M831 33q-61 -37 -115 -51.5t-126 -14.5q-252 0 -402.5 146t-150.5 389q0 239 151.5 387.5t401.5 148.5q73 0 127.5 -14t113.5 -47v-287q-39 42 -101 68t-122 26q-121 0 -200.5 -80t-79.5 -200q0 -130 75.5 -206.5t204.5 -76.5q64 0 123.5 26t99.5 72v-286zM842 1313
l-387 -203l-74 117l346 262z" />
    <glyph glyph-name="Ccircumflex" unicode="&#x108;" horiz-adv-x="1231" 
d="M1190 84q-62 -46 -182 -81.5t-217 -35.5q-348 0 -549 218.5t-201 588.5q0 352 207.5 577.5t548.5 225.5q127 0 220 -24t173 -78v-334q-79 70 -174 107.5t-191 37.5q-214 0 -342.5 -140t-128.5 -372q0 -238 117.5 -377t323.5 -139q123 0 219 41t176 127v-342zM1120 1766
l-73 -117l-252 137l-252 -137l-74 117l326 254z" />
    <glyph glyph-name="ccircumflex" unicode="&#x109;" horiz-adv-x="862" 
d="M831 33q-61 -37 -115 -51.5t-126 -14.5q-252 0 -402.5 146t-150.5 389q0 239 151.5 387.5t401.5 148.5q73 0 127.5 -14t113.5 -47v-287q-39 42 -101 68t-122 26q-121 0 -200.5 -80t-79.5 -200q0 -130 75.5 -206.5t204.5 -76.5q64 0 123.5 26t99.5 72v-286zM889 1227
l-73 -117l-252 137l-252 -137l-74 117l326 254z" />
    <glyph glyph-name="Cdot" unicode="&#x10a;" horiz-adv-x="1231" 
d="M1190 84q-62 -46 -182 -81.5t-217 -35.5q-348 0 -549 218.5t-201 588.5q0 352 207.5 577.5t548.5 225.5q127 0 220 -24t173 -78v-334q-79 70 -174 107.5t-191 37.5q-214 0 -342.5 -140t-128.5 -372q0 -238 117.5 -377t323.5 -139q123 0 219 41t176 127v-342zM932 1817
q0 -58 -39 -96.5t-98 -38.5q-55 0 -95 40t-40 95q0 53 41.5 95t93.5 42q55 0 96 -41t41 -96z" />
    <glyph glyph-name="cdot" unicode="&#x10b;" horiz-adv-x="862" 
d="M831 33q-61 -37 -115 -51.5t-126 -14.5q-252 0 -402.5 146t-150.5 389q0 239 151.5 387.5t401.5 148.5q73 0 127.5 -14t113.5 -47v-287q-39 42 -101 68t-122 26q-121 0 -200.5 -80t-79.5 -200q0 -130 75.5 -206.5t204.5 -76.5q64 0 123.5 26t99.5 72v-286zM700 1278
q0 -58 -39 -96.5t-98 -38.5q-55 0 -95 40t-40 95q0 53 41.5 95t93.5 42q55 0 96 -41t41 -96z" />
    <glyph glyph-name="Ccaron" unicode="&#x10c;" horiz-adv-x="1231" 
d="M1190 84q-62 -46 -182 -81.5t-217 -35.5q-348 0 -549 218.5t-201 588.5q0 352 207.5 577.5t548.5 225.5q127 0 220 -24t173 -78v-334q-79 70 -174 107.5t-191 37.5q-214 0 -342.5 -140t-128.5 -372q0 -238 117.5 -377t323.5 -139q123 0 219 41t176 127v-342zM1120 1903
l-325 -254l-326 254l74 117l252 -138l252 138z" />
    <glyph glyph-name="ccaron" unicode="&#x10d;" horiz-adv-x="862" 
d="M831 33q-61 -37 -115 -51.5t-126 -14.5q-252 0 -402.5 146t-150.5 389q0 239 151.5 387.5t401.5 148.5q73 0 127.5 -14t113.5 -47v-287q-39 42 -101 68t-122 26q-121 0 -200.5 -80t-79.5 -200q0 -130 75.5 -206.5t204.5 -76.5q64 0 123.5 26t99.5 72v-286zM889 1364
l-325 -254l-326 254l74 117l252 -138l252 138z" />
    <glyph glyph-name="Dcaron" unicode="&#x10e;" horiz-adv-x="1323" 
d="M948 772q0 239 -124 372.5t-347 133.5h-74v-1012h74q222 0 346.5 132.5t124.5 373.5zM1262 770q0 -366 -218 -568t-610 -202h-332v1544h308q412 0 632 -198.5t220 -575.5zM893 1903l-325 -254l-326 254l74 117l252 -138l252 138z" />
    <glyph glyph-name="dcaron" unicode="&#x10f;" horiz-adv-x="1763" 
d="M768 502q0 119 -63.5 200.5t-157.5 81.5t-156.5 -81t-62.5 -201t62 -200.5t157 -80.5t158 81t63 200zM1055 0h-287v115q-44 -73 -112.5 -110.5t-157.5 -37.5q-207 0 -334 150t-127 385t127 385.5t334 150.5q95 0 166 -38.5t104 -108.5v799h287v-1690zM1694 1544
l-289 -635h-191l172 635h308z" />
    <glyph glyph-name="Dslash" unicode="&#x110;" horiz-adv-x="1323" 
d="M948 772q0 239 -124 372.5t-347 133.5h-74v-420h252v-229h-252v-363h74q222 0 346.5 132.5t124.5 373.5zM1262 770q0 -366 -218 -568t-610 -202h-332v629h-102v229h102v686h308q412 0 632 -198.5t220 -575.5z" />
    <glyph glyph-name="dcroat" unicode="&#x111;" horiz-adv-x="1157" 
d="M768 502q0 119 -63.5 200.5t-157.5 81.5t-156.5 -81t-62.5 -201t62 -200.5t157 -80.5t158 81t63 200zM1176 1239h-121v-1239h-287v115q-44 -73 -112.5 -110.5t-157.5 -37.5q-207 0 -334 150t-127 385t127 385.5t334 150.5q95 0 166 -38.5t104 -108.5v348h-309v188h309
v263h287v-263h121v-188z" />
    <glyph glyph-name="Emacron" unicode="&#x112;" horiz-adv-x="999" 
d="M897 0h-774v1544h774v-266h-467v-360h467v-267h-467v-385h467v-266zM788 1727h-573v176h573v-176z" />
    <glyph glyph-name="emacron" unicode="&#x113;" horiz-adv-x="1026" 
d="M717 592q-19 99 -73.5 156t-131.5 57t-132 -58t-73 -155h410zM1001 504q0 -37 -0.5 -55t-3.5 -33h-690q21 -96 82 -155.5t139 -59.5q67 0 121.5 34t81.5 93l230 -115q-60 -119 -173 -182.5t-268 -63.5q-224 0 -359.5 147.5t-135.5 389.5q0 226 141 380t348 154
q215 0 351 -151t136 -383zM800 1188h-573v176h573v-176z" />
    <glyph glyph-name="Ebreve" unicode="&#x114;" horiz-adv-x="999" 
d="M897 0h-774v1544h774v-266h-467v-360h467v-267h-467v-385h467v-266zM819 1971q-34 -141 -110 -207t-205 -66q-132 0 -215.5 72t-102.5 201l121 49q17 -70 68.5 -109t128.5 -39q76 0 126.5 39t67.5 109z" />
    <glyph glyph-name="ebreve" unicode="&#x115;" horiz-adv-x="1026" 
d="M717 592q-19 99 -73.5 156t-131.5 57t-132 -58t-73 -155h410zM1001 504q0 -37 -0.5 -55t-3.5 -33h-690q21 -96 82 -155.5t139 -59.5q67 0 121.5 34t81.5 93l230 -115q-60 -119 -173 -182.5t-268 -63.5q-224 0 -359.5 147.5t-135.5 389.5q0 226 141 380t348 154
q215 0 351 -151t136 -383zM831 1432q-34 -141 -110 -207t-205 -66q-132 0 -215.5 72t-102.5 201l121 49q17 -70 68.5 -109t128.5 -39q76 0 126.5 39t67.5 109z" />
    <glyph glyph-name="Edot" unicode="&#x116;" horiz-adv-x="999" 
d="M897 0h-774v1544h774v-266h-467v-360h467v-267h-467v-385h467v-266zM639 1817q0 -58 -39 -96.5t-98 -38.5q-55 0 -95 40t-40 95q0 53 41.5 95t93.5 42q55 0 96 -41t41 -96z" />
    <glyph glyph-name="edot" unicode="&#x117;" horiz-adv-x="1026" 
d="M717 592q-19 99 -73.5 156t-131.5 57t-132 -58t-73 -155h410zM1001 504q0 -37 -0.5 -55t-3.5 -33h-690q21 -96 82 -155.5t139 -59.5q67 0 121.5 34t81.5 93l230 -115q-60 -119 -173 -182.5t-268 -63.5q-224 0 -359.5 147.5t-135.5 389.5q0 226 141 380t348 154
q215 0 351 -151t136 -383zM651 1278q0 -58 -39 -96.5t-98 -38.5q-55 0 -95 40t-40 95q0 53 41.5 95t93.5 42q55 0 96 -41t41 -96z" />
    <glyph glyph-name="Eogonek" unicode="&#x118;" horiz-adv-x="999" 
d="M897 -479q-190 0 -261 43t-71 162q0 65 41 136.5t117 137.5h-600v1544h774v-266h-467v-360h467v-267h-467v-385h467v-266h-37q-54 -54 -80 -104.5t-26 -100.5q0 -58 32 -79t111 -21v-174z" />
    <glyph glyph-name="eogonek" unicode="&#x119;" horiz-adv-x="1026" 
d="M717 592q-19 99 -73.5 156t-131.5 57t-132 -58t-73 -155h410zM1001 504q0 -37 -0.5 -55t-3.5 -33h-690q21 -96 82 -155.5t139 -59.5q67 0 121.5 34t81.5 93l230 -115q-48 -92 -127.5 -152t-186.5 -81q-43 -48 -64.5 -93.5t-21.5 -91.5q0 -58 32 -79t112 -21v-174
q-190 0 -261 43t-71 162q0 57 31.5 119.5t90.5 121.5q-214 10 -342 156t-128 381q0 226 141 380t348 154q215 0 351 -151t136 -383z" />
    <glyph glyph-name="Ecaron" unicode="&#x11a;" horiz-adv-x="999" 
d="M897 0h-774v1544h774v-266h-467v-360h467v-267h-467v-385h467v-266zM827 1903l-325 -254l-326 254l74 117l252 -138l252 138z" />
    <glyph glyph-name="ecaron" unicode="&#x11b;" horiz-adv-x="1026" 
d="M717 592q-19 99 -73.5 156t-131.5 57t-132 -58t-73 -155h410zM1001 504q0 -37 -0.5 -55t-3.5 -33h-690q21 -96 82 -155.5t139 -59.5q67 0 121.5 34t81.5 93l230 -115q-60 -119 -173 -182.5t-268 -63.5q-224 0 -359.5 147.5t-135.5 389.5q0 226 141 380t348 154
q215 0 351 -151t136 -383zM839 1364l-325 -254l-326 254l74 117l252 -138l252 138z" />
    <glyph glyph-name="Gcircumflex" unicode="&#x11c;" horiz-adv-x="1513" 
d="M1483 772q0 -355 -195.5 -580t-509.5 -225q-319 0 -528 228t-209 577t209 577t528 228q190 0 349.5 -84.5t250.5 -232.5l-231 -170q-60 96 -151 143t-218 47q-195 0 -310.5 -139.5t-115.5 -368.5t115.5 -368.5t310.5 -139.5q136 0 225 70.5t136 214.5h-361v266h705v-43z
M1083 1766l-73 -117l-252 137l-252 -137l-74 117l326 254z" />
    <glyph glyph-name="gcircumflex" unicode="&#x11d;" horiz-adv-x="1151" 
d="M768 502q0 119 -63.5 200.5t-157.5 81.5t-156.5 -81t-62.5 -201t62 -200.5t157 -80.5t158 81t63 200zM1055 -53q0 -262 -117 -381t-373 -119q-235 0 -366 98t-131 267h292q0 -54 57 -86.5t148 -32.5q111 0 157 56.5t46 191.5v174q-44 -73 -112.5 -110.5t-157.5 -37.5
q-207 0 -334 150t-127 385t127 385.5t334 150.5q95 0 166 -38.5t104 -108.5v115h287v-1059zM901 1227l-73 -117l-252 137l-252 -137l-74 117l326 254z" />
    <glyph glyph-name="Gbreve" unicode="&#x11e;" horiz-adv-x="1513" 
d="M1483 772q0 -355 -195.5 -580t-509.5 -225q-319 0 -528 228t-209 577t209 577t528 228q190 0 349.5 -84.5t250.5 -232.5l-231 -170q-60 96 -151 143t-218 47q-195 0 -310.5 -139.5t-115.5 -368.5t115.5 -368.5t310.5 -139.5q136 0 225 70.5t136 214.5h-361v266h705v-43z
M1075 1971q-34 -141 -110 -207t-205 -66q-132 0 -215.5 72t-102.5 201l121 49q17 -70 68.5 -109t128.5 -39q76 0 126.5 39t67.5 109z" />
    <glyph glyph-name="gbreve" unicode="&#x11f;" horiz-adv-x="1151" 
d="M768 502q0 119 -63.5 200.5t-157.5 81.5t-156.5 -81t-62.5 -201t62 -200.5t157 -80.5t158 81t63 200zM1055 -53q0 -262 -117 -381t-373 -119q-235 0 -366 98t-131 267h292q0 -54 57 -86.5t148 -32.5q111 0 157 56.5t46 191.5v174q-44 -73 -112.5 -110.5t-157.5 -37.5
q-207 0 -334 150t-127 385t127 385.5t334 150.5q95 0 166 -38.5t104 -108.5v115h287v-1059zM893 1432q-34 -141 -110 -207t-205 -66q-132 0 -215.5 72t-102.5 201l121 49q17 -70 68.5 -109t128.5 -39q76 0 126.5 39t67.5 109z" />
    <glyph glyph-name="Gdot" unicode="&#x120;" horiz-adv-x="1513" 
d="M1483 772q0 -355 -195.5 -580t-509.5 -225q-319 0 -528 228t-209 577t209 577t528 228q190 0 349.5 -84.5t250.5 -232.5l-231 -170q-60 96 -151 143t-218 47q-195 0 -310.5 -139.5t-115.5 -368.5t115.5 -368.5t310.5 -139.5q136 0 225 70.5t136 214.5h-361v266h705v-43z
M895 1817q0 -58 -39 -96.5t-98 -38.5q-55 0 -95 40t-40 95q0 53 41.5 95t93.5 42q55 0 96 -41t41 -96z" />
    <glyph glyph-name="gdot" unicode="&#x121;" horiz-adv-x="1151" 
d="M768 502q0 119 -63.5 200.5t-157.5 81.5t-156.5 -81t-62.5 -201t62 -200.5t157 -80.5t158 81t63 200zM1055 -53q0 -262 -117 -381t-373 -119q-235 0 -366 98t-131 267h292q0 -54 57 -86.5t148 -32.5q111 0 157 56.5t46 191.5v174q-44 -73 -112.5 -110.5t-157.5 -37.5
q-207 0 -334 150t-127 385t127 385.5t334 150.5q95 0 166 -38.5t104 -108.5v115h287v-1059zM712 1278q0 -58 -39 -96.5t-98 -38.5q-55 0 -95 40t-40 95q0 53 41.5 95t93.5 42q55 0 96 -41t41 -96z" />
    <glyph glyph-name="Gcedilla" unicode="&#x122;" horiz-adv-x="1513" 
d="M1483 772q0 -355 -195.5 -580t-509.5 -225q-319 0 -528 228t-209 577t209 577t528 228q190 0 349.5 -84.5t250.5 -232.5l-231 -170q-60 96 -151 143t-218 47q-195 0 -310.5 -139.5t-115.5 -368.5t115.5 -368.5t310.5 -139.5q136 0 225 70.5t136 214.5h-361v266h705v-43z
M953 -168l-295 -324l-109 84l236 365z" />
    <glyph glyph-name="gcedilla" unicode="&#x123;" horiz-adv-x="1151" 
d="M768 502q0 119 -63.5 200.5t-157.5 81.5t-156.5 -81t-62.5 -201t62 -200.5t157 -80.5t158 81t63 200zM1055 -53q0 -262 -117 -381t-373 -119q-235 0 -366 98t-131 267h292q0 -54 57 -86.5t148 -32.5q111 0 157 56.5t46 191.5v174q-44 -73 -112.5 -110.5t-157.5 -37.5
q-207 0 -334 150t-127 385t127 385.5t334 150.5q95 0 166 -38.5t104 -108.5v115h287v-1059zM854 1313l-387 -203l-74 117l346 262z" />
    <glyph glyph-name="Hcircumflex" unicode="&#x124;" horiz-adv-x="1380" 
d="M1257 0h-301v651h-532v-651h-301v1544h301v-626h532v626h301v-1544zM1016 1766l-73 -117l-252 137l-252 -137l-74 117l326 254z" />
    <glyph glyph-name="hcircumflex" unicode="&#x125;" horiz-adv-x="1106" 
d="M1008 0h-285v592q0 114 -34.5 165.5t-110.5 51.5q-83 0 -136 -78t-53 -215v-516h-287v1690h287v-801q41 73 119.5 111t185.5 38q160 0 237 -96t77 -293v-649zM579 1878l-73 -117l-252 137l-252 -137l-74 117l326 254z" />
    <glyph glyph-name="Itilde" unicode="&#x128;" horiz-adv-x="520" 
d="M412 0h-301v1544h301v-1544zM600 1876q-31 -94 -88.5 -146t-129.5 -52q-32 0 -66.5 12.5t-78.5 40.5q-5 3 -14 9q-65 42 -92 42q-29 0 -51 -21.5t-48 -72.5l-112 70q34 96 88 146t125 50q31 0 65.5 -12t81.5 -41q5 -3 13 -9q67 -42 94 -42q30 0 50 17.5t50 76.5z" />
    <glyph glyph-name="itilde" unicode="&#x129;" horiz-adv-x="518" 
d="M403 0h-286v1006h286v-1006zM600 1337q-31 -94 -88.5 -146t-129.5 -52q-32 0 -66.5 12.5t-78.5 40.5q-5 3 -14 9q-65 42 -92 42q-29 0 -51 -21.5t-48 -72.5l-112 70q34 96 88 146t125 50q31 0 65.5 -12t81.5 -41q5 -3 13 -9q67 -42 94 -42q30 0 50 17.5t50 76.5z" />
    <glyph glyph-name="Imacron" unicode="&#x12a;" horiz-adv-x="520" 
d="M412 0h-301v1544h301v-1544zM546 1727h-573v176h573v-176z" />
    <glyph glyph-name="imacron" unicode="&#x12b;" horiz-adv-x="518" 
d="M403 0h-286v1006h286v-1006zM546 1188h-573v176h573v-176z" />
    <glyph glyph-name="Ibreve" unicode="&#x12c;" horiz-adv-x="520" 
d="M412 0h-301v1544h301v-1544zM577 1971q-34 -141 -110 -207t-205 -66q-132 0 -215.5 72t-102.5 201l121 49q17 -70 68.5 -109t128.5 -39q76 0 126.5 39t67.5 109z" />
    <glyph glyph-name="ibreve" unicode="&#x12d;" horiz-adv-x="518" 
d="M403 0h-286v1006h286v-1006zM577 1432q-34 -141 -110 -207t-205 -66q-132 0 -215.5 72t-102.5 201l121 49q17 -70 68.5 -109t128.5 -39q76 0 126.5 39t67.5 109z" />
    <glyph glyph-name="Iogonek" unicode="&#x12e;" horiz-adv-x="520" 
d="M412 -479q-190 0 -261 43t-71 162q0 65 41 136.5t117 137.5h-127v1544h301v-1544h-37q-54 -54 -80.5 -104.5t-26.5 -100.5q0 -58 32 -79t112 -21v-174z" />
    <glyph glyph-name="iogonek" unicode="&#x12f;" horiz-adv-x="518" 
d="M403 -479q-189 0 -260 43t-71 162q0 65 41 136.5t116 137.5h-112v1006h286v-1006h-36q-55 -54 -81 -104.5t-26 -100.5q0 -58 32 -79t111 -21v-174zM426 1411q0 -69 -48.5 -117.5t-117.5 -48.5t-117.5 48.5t-48.5 117.5t48.5 117.5t117.5 48.5t117.5 -48.5t48.5 -117.5z
" />
    <glyph glyph-name="Idotaccent" unicode="&#x130;" horiz-adv-x="520" 
d="M412 0h-301v1544h301v-1544zM397 1817q0 -58 -39 -96.5t-98 -38.5q-55 0 -95 40t-40 95q0 53 41.5 95t93.5 42q55 0 96 -41t41 -96z" />
    <glyph glyph-name="dotlessi" unicode="&#x131;" horiz-adv-x="518" 
d="M403 0h-286v1006h286v-1006z" />
    <glyph glyph-name="Kcedilla" unicode="&#x136;" horiz-adv-x="1270" 
d="M1305 0h-365l-516 807v-807h-301v1544h301v-702l512 702h350l-549 -706zM830 -168l-295 -324l-109 84l236 365z" />
    <glyph glyph-name="kcedilla" unicode="&#x137;" horiz-adv-x="1077" 
d="M1069 0h-352l-328 532v-532h-287v1690h287v-1131l318 447h342l-347 -447zM734 -168l-295 -324l-109 84l236 365z" />
    <glyph glyph-name="Lacute" unicode="&#x139;" horiz-adv-x="823" 
d="M803 0h-680v1544h301v-1278h379v-266zM553 1852l-387 -203l-74 117l346 262z" />
    <glyph glyph-name="lacute" unicode="&#x13a;" horiz-adv-x="489" 
d="M389 0h-287v1690h287v-1690zM525 1964l-387 -203l-74 117l346 262z" />
    <glyph glyph-name="Lcedilla" unicode="&#x13b;" horiz-adv-x="823" 
d="M803 0h-680v1544h301v-1278h379v-266zM607 -168l-295 -324l-109 84l236 365z" />
    <glyph glyph-name="lcedilla" unicode="&#x13c;" horiz-adv-x="489" 
d="M389 0h-287v1690h287v-1690zM441 -168l-295 -324l-109 84l236 365z" />
    <glyph glyph-name="Lcaron" unicode="&#x13d;" horiz-adv-x="854" 
d="M803 0h-680v1544h301v-1278h379v-266zM903 1544l-207 -520h-190l110 520h287z" />
    <glyph glyph-name="lcaron" unicode="&#x13e;" horiz-adv-x="819" 
d="M389 0h-287v1690h287v-1690zM868 1544l-206 -520h-191l111 520h286z" />
    <glyph glyph-name="Ldot" unicode="&#x13f;" horiz-adv-x="1415" 
d="M803 0h-680v1544h301v-1278h379v-266zM1294 793q0 -71 -50 -120.5t-122 -49.5q-71 0 -121.5 50t-50.5 120q0 71 50.5 121.5t121.5 50.5t121.5 -50.5t50.5 -121.5z" />
    <glyph glyph-name="ldot" unicode="&#x140;" horiz-adv-x="1081" 
d="M389 0h-287v1690h287v-1690zM960 793q0 -71 -50 -120.5t-122 -49.5q-71 0 -121.5 50t-50.5 120q0 71 50.5 121.5t121.5 50.5t121.5 -50.5t50.5 -121.5z" />
    <glyph glyph-name="Lslash" unicode="&#x141;" horiz-adv-x="889" 
d="M868 0h-680v526l-114 -80l-123 187l237 168v743h301v-571l201 139l123 -188l-324 -226v-432h379v-266z" />
    <glyph glyph-name="lslash" unicode="&#x142;" horiz-adv-x="580" 
d="M614 829l-180 -129v-700h-287v524l-75 -55l-107 156l182 129v936h287v-760l74 53z" />
    <glyph glyph-name="Nacute" unicode="&#x143;" horiz-adv-x="1554" 
d="M1432 0h-295l-719 1042v-1042h-295v1544h295l719 -1038v1038h295v-1544zM1057 1852l-387 -203l-74 117l346 262z" />
    <glyph glyph-name="nacute" unicode="&#x144;" horiz-adv-x="1106" 
d="M1008 0h-285v592q0 114 -34.5 165.5t-110.5 51.5q-83 0 -136 -78t-53 -215v-516h-287v1006h287v-117q41 73 119.5 111t185.5 38q155 0 234.5 -103.5t79.5 -305.5v-629zM832 1313l-387 -203l-74 117l346 262z" />
    <glyph glyph-name="Ncedilla" unicode="&#x145;" horiz-adv-x="1554" 
d="M1432 0h-295l-719 1042v-1042h-295v1544h295l719 -1038v1038h295v-1544zM973 -168l-295 -324l-109 84l236 365z" />
    <glyph glyph-name="ncedilla" unicode="&#x146;" horiz-adv-x="1106" 
d="M1008 0h-285v592q0 114 -34.5 165.5t-110.5 51.5q-83 0 -136 -78t-53 -215v-516h-287v1006h287v-117q41 73 119.5 111t185.5 38q155 0 234.5 -103.5t79.5 -305.5v-629zM748 -168l-295 -324l-109 84l236 365z" />
    <glyph glyph-name="Ncaron" unicode="&#x147;" horiz-adv-x="1554" 
d="M1432 0h-295l-719 1042v-1042h-295v1544h295l719 -1038v1038h295v-1544zM1104 1903l-325 -254l-326 254l74 117l252 -138l252 138z" />
    <glyph glyph-name="ncaron" unicode="&#x148;" horiz-adv-x="1106" 
d="M1008 0h-285v592q0 114 -34.5 165.5t-110.5 51.5q-83 0 -136 -78t-53 -215v-516h-287v1006h287v-117q41 73 119.5 111t185.5 38q155 0 234.5 -103.5t79.5 -305.5v-629zM878 1364l-325 -254l-326 254l74 117l252 -138l252 138z" />
    <glyph glyph-name="Omacron" unicode="&#x14c;" horiz-adv-x="1602" 
d="M1249 772q0 224 -124.5 366t-323.5 142q-200 0 -324.5 -142t-124.5 -366t124.5 -366t324.5 -142q199 0 323.5 142t124.5 366zM1561 772q0 -345 -218.5 -575t-541.5 -230t-541.5 230t-218.5 575t218.5 575t541.5 230t541.5 -230t218.5 -575zM1087 1727h-573v176h573v-176z
" />
    <glyph glyph-name="omacron" unicode="&#x14d;" horiz-adv-x="1122" 
d="M795 504q0 120 -67.5 200t-166.5 80q-103 0 -168 -78.5t-65 -201.5q0 -125 65.5 -204t167.5 -79q107 0 170.5 78t63.5 205zM1085 504q0 -228 -148.5 -382.5t-373.5 -154.5q-226 0 -376 154t-150 383q0 231 149 382.5t377 151.5q225 0 373.5 -153.5t148.5 -380.5z
M848 1188h-573v176h573v-176z" />
    <glyph glyph-name="Obreve" unicode="&#x14e;" horiz-adv-x="1602" 
d="M1249 772q0 224 -124.5 366t-323.5 142q-200 0 -324.5 -142t-124.5 -366t124.5 -366t324.5 -142q199 0 323.5 142t124.5 366zM1561 772q0 -345 -218.5 -575t-541.5 -230t-541.5 230t-218.5 575t218.5 575t541.5 230t541.5 -230t218.5 -575zM1118 1971q-34 -141 -110 -207
t-205 -66q-132 0 -215.5 72t-102.5 201l121 49q17 -70 68.5 -109t128.5 -39q76 0 126.5 39t67.5 109z" />
    <glyph glyph-name="obreve" unicode="&#x14f;" horiz-adv-x="1122" 
d="M795 504q0 120 -67.5 200t-166.5 80q-103 0 -168 -78.5t-65 -201.5q0 -125 65.5 -204t167.5 -79q107 0 170.5 78t63.5 205zM1085 504q0 -228 -148.5 -382.5t-373.5 -154.5q-226 0 -376 154t-150 383q0 231 149 382.5t377 151.5q225 0 373.5 -153.5t148.5 -380.5z
M879 1432q-34 -141 -110 -207t-205 -66q-132 0 -215.5 72t-102.5 201l121 49q17 -70 68.5 -109t128.5 -39q76 0 126.5 39t67.5 109z" />
    <glyph glyph-name="Odblacute" unicode="&#x150;" horiz-adv-x="1602" 
d="M1249 772q0 224 -124.5 366t-323.5 142q-200 0 -324.5 -142t-124.5 -366t124.5 -366t324.5 -142q199 0 323.5 142t124.5 366zM1561 772q0 -345 -218.5 -575t-541.5 -230t-541.5 230t-218.5 575t218.5 575t541.5 230t541.5 -230t218.5 -575zM873 1930l-193 -281l-121 66
l127 313zM1186 1891l-260 -242l-102 92l202 287z" />
    <glyph glyph-name="odblacute" unicode="&#x151;" horiz-adv-x="1122" 
d="M795 504q0 120 -67.5 200t-166.5 80q-103 0 -168 -78.5t-65 -201.5q0 -125 65.5 -204t167.5 -79q107 0 170.5 78t63.5 205zM1085 504q0 -228 -148.5 -382.5t-373.5 -154.5q-226 0 -376 154t-150 383q0 231 149 382.5t377 151.5q225 0 373.5 -153.5t148.5 -380.5z
M633 1391l-193 -281l-121 66l127 313zM946 1352l-260 -242l-102 92l202 287z" />
    <glyph glyph-name="OE" unicode="&#x152;" horiz-adv-x="2128" 
d="M1249 772q0 224 -124.5 366t-323.5 142q-200 0 -324.5 -142t-124.5 -366t124.5 -366t324.5 -142q199 0 323.5 142t124.5 366zM2025 0h-776v162q-64 -86 -188.5 -140.5t-259.5 -54.5q-323 0 -541.5 230t-218.5 575t218.5 575t541.5 230q139 0 256.5 -51t191.5 -144v162
h776v-266h-469v-360h469v-267h-469v-385h469v-266z" />
    <glyph glyph-name="oe" unicode="&#x153;" horiz-adv-x="1788" 
d="M795 504q0 120 -67.5 200t-166.5 80q-103 0 -168 -78.5t-65 -201.5q0 -125 65.5 -204t167.5 -79q107 0 170.5 78t63.5 205zM1479 592q-19 99 -73.5 156t-131.5 57t-132 -58t-73 -155h410zM1763 504q0 -37 -1 -55t-3 -33h-690q21 -96 82 -155.5t139 -59.5q67 0 121.5 34
t81.5 93l229 -115q-59 -119 -172 -182.5t-268 -63.5q-124 0 -214.5 50t-143.5 147q-57 -97 -148.5 -147t-212.5 -50q-226 0 -376 154t-150 383q0 231 149 382.5t377 151.5q125 0 217 -51t148 -151q55 98 144 150t204 52q215 0 351 -151t136 -383z" />
    <glyph glyph-name="Racute" unicode="&#x154;" horiz-adv-x="1143" 
d="M758 1087q0 110 -65 160.5t-201 50.5h-68v-417h68q134 0 200 50.5t66 155.5zM1149 0h-361l-364 705v-705h-301v1544h416q261 0 396.5 -110t135.5 -320q0 -178 -90 -286t-236 -123zM850 1852l-387 -203l-74 117l346 262z" />
    <glyph glyph-name="racute" unicode="&#x155;" horiz-adv-x="752" 
d="M772 1022l-51 -297q-27 14 -50.5 20.5t-49.5 6.5q-118 0 -175 -77.5t-57 -238.5v-436h-287v1006h287v-211q40 135 104.5 189t190.5 54q21 0 46 -4.5t42 -11.5zM656 1313l-387 -203l-74 117l346 262z" />
    <glyph glyph-name="Rcedilla" unicode="&#x156;" horiz-adv-x="1143" 
d="M758 1087q0 110 -65 160.5t-201 50.5h-68v-417h68q134 0 200 50.5t66 155.5zM1149 0h-361l-364 705v-705h-301v1544h416q261 0 396.5 -110t135.5 -320q0 -178 -90 -286t-236 -123zM766 -168l-295 -324l-109 84l236 365z" />
    <glyph glyph-name="rcedilla" unicode="&#x157;" horiz-adv-x="752" 
d="M772 1022l-51 -297q-27 14 -50.5 20.5t-49.5 6.5q-118 0 -175 -77.5t-57 -238.5v-436h-287v1006h287v-211q40 135 104.5 189t190.5 54q21 0 46 -4.5t42 -11.5zM443 -168l-295 -324l-109 84l236 365z" />
    <glyph glyph-name="Rcaron" unicode="&#x158;" horiz-adv-x="1143" 
d="M758 1087q0 110 -65 160.5t-201 50.5h-68v-417h68q134 0 200 50.5t66 155.5zM1149 0h-361l-364 705v-705h-301v1544h416q261 0 396.5 -110t135.5 -320q0 -178 -90 -286t-236 -123zM897 1903l-325 -254l-326 254l74 117l252 -138l252 138z" />
    <glyph glyph-name="rcaron" unicode="&#x159;" horiz-adv-x="752" 
d="M772 1022l-51 -297q-27 14 -50.5 20.5t-49.5 6.5q-118 0 -175 -77.5t-57 -238.5v-436h-287v1006h287v-211q40 135 104.5 189t190.5 54q21 0 46 -4.5t42 -11.5zM702 1364l-325 -254l-326 254l74 117l252 -138l252 138z" />
    <glyph glyph-name="Sacute" unicode="&#x15a;" horiz-adv-x="1077" 
d="M1018 426q0 -221 -130 -340t-374 -119q-169 0 -294 61.5t-181 172.5l190 213q31 -80 111.5 -130.5t173.5 -50.5q95 0 144 44t49 129q0 74 -65.5 134t-231.5 152q-182 101 -257 205t-75 246q0 198 130.5 316t352.5 118q135 0 238 -50.5t172 -150.5l-185 -202
q-29 59 -94 98t-135 39q-80 0 -127 -41.5t-47 -102.5q0 -123 219 -241q40 -21 62 -33q192 -107 273 -213t81 -254zM818 1852l-387 -203l-74 117l346 262z" />
    <glyph glyph-name="sacute" unicode="&#x15b;" horiz-adv-x="840" 
d="M197 262q25 -37 77.5 -63.5t104.5 -26.5q60 0 94.5 25t34.5 67q0 47 -43 80t-141 70q-141 53 -201 124.5t-60 190.5q0 142 104.5 225.5t287.5 83.5q95 0 170 -29.5t127 -86.5l-134 -162q-41 41 -78 57.5t-85 16.5q-59 0 -92 -23.5t-33 -60.5q0 -53 42 -88t140 -68
q131 -43 200.5 -123t69.5 -186q0 -148 -107 -233t-296 -85q-116 0 -209 39.5t-141 108.5zM699 1313l-387 -203l-74 117l346 262z" />
    <glyph glyph-name="Scircumflex" unicode="&#x15c;" horiz-adv-x="1077" 
d="M1018 426q0 -221 -130 -340t-374 -119q-169 0 -294 61.5t-181 172.5l190 213q31 -80 111.5 -130.5t173.5 -50.5q95 0 144 44t49 129q0 74 -65.5 134t-231.5 152q-182 101 -257 205t-75 246q0 198 130.5 316t352.5 118q135 0 238 -50.5t172 -150.5l-185 -202
q-29 59 -94 98t-135 39q-80 0 -127 -41.5t-47 -102.5q0 -123 219 -241q40 -21 62 -33q192 -107 273 -213t81 -254zM864 1766l-73 -117l-252 137l-252 -137l-74 117l326 254z" />
    <glyph glyph-name="scircumflex" unicode="&#x15d;" horiz-adv-x="840" 
d="M197 262q25 -37 77.5 -63.5t104.5 -26.5q60 0 94.5 25t34.5 67q0 47 -43 80t-141 70q-141 53 -201 124.5t-60 190.5q0 142 104.5 225.5t287.5 83.5q95 0 170 -29.5t127 -86.5l-134 -162q-41 41 -78 57.5t-85 16.5q-59 0 -92 -23.5t-33 -60.5q0 -53 42 -88t140 -68
q131 -43 200.5 -123t69.5 -186q0 -148 -107 -233t-296 -85q-116 0 -209 39.5t-141 108.5zM745 1227l-73 -117l-252 137l-252 -137l-74 117l326 254z" />
    <glyph glyph-name="Scedilla" unicode="&#x15e;" horiz-adv-x="1077" 
d="M1018 426q0 -221 -130 -340t-374 -119q-169 0 -294 61.5t-181 172.5l190 213q31 -80 111.5 -130.5t173.5 -50.5q95 0 144 44t49 129q0 74 -65.5 134t-231.5 152q-182 101 -257 205t-75 246q0 198 130.5 316t352.5 118q135 0 238 -50.5t172 -150.5l-185 -202
q-29 59 -94 98t-135 39q-80 0 -127 -41.5t-47 -102.5q0 -123 219 -241q40 -21 62 -33q192 -107 273 -213t81 -254zM734 -168l-295 -324l-109 84l236 365z" />
    <glyph glyph-name="scedilla" unicode="&#x15f;" horiz-adv-x="840" 
d="M197 262q25 -37 77.5 -63.5t104.5 -26.5q60 0 94.5 25t34.5 67q0 47 -43 80t-141 70q-141 53 -201 124.5t-60 190.5q0 142 104.5 225.5t287.5 83.5q95 0 170 -29.5t127 -86.5l-134 -162q-41 41 -78 57.5t-85 16.5q-59 0 -92 -23.5t-33 -60.5q0 -53 42 -88t140 -68
q131 -43 200.5 -123t69.5 -186q0 -148 -107 -233t-296 -85q-116 0 -209 39.5t-141 108.5zM615 -168l-295 -324l-109 84l236 365z" />
    <glyph glyph-name="Scaron" unicode="&#x160;" horiz-adv-x="1077" 
d="M1018 426q0 -221 -130 -340t-374 -119q-169 0 -294 61.5t-181 172.5l190 213q31 -80 111.5 -130.5t173.5 -50.5q95 0 144 44t49 129q0 74 -65.5 134t-231.5 152q-182 101 -257 205t-75 246q0 198 130.5 316t352.5 118q135 0 238 -50.5t172 -150.5l-185 -202
q-29 59 -94 98t-135 39q-80 0 -127 -41.5t-47 -102.5q0 -123 219 -241q40 -21 62 -33q192 -107 273 -213t81 -254zM864 1903l-325 -254l-326 254l74 117l252 -138l252 138z" />
    <glyph glyph-name="scaron" unicode="&#x161;" horiz-adv-x="840" 
d="M197 262q25 -37 77.5 -63.5t104.5 -26.5q60 0 94.5 25t34.5 67q0 47 -43 80t-141 70q-141 53 -201 124.5t-60 190.5q0 142 104.5 225.5t287.5 83.5q95 0 170 -29.5t127 -86.5l-134 -162q-41 41 -78 57.5t-85 16.5q-59 0 -92 -23.5t-33 -60.5q0 -53 42 -88t140 -68
q131 -43 200.5 -123t69.5 -186q0 -148 -107 -233t-296 -85q-116 0 -209 39.5t-141 108.5zM745 1364l-325 -254l-326 254l74 117l252 -138l252 138z" />
    <glyph glyph-name="Tcedilla" unicode="&#x162;" horiz-adv-x="924" 
d="M903 1278h-291v-1278h-301v1278h-291v266h883v-266zM658 -168l-295 -324l-109 84l236 365z" />
    <glyph glyph-name="tcedilla" unicode="&#x163;" horiz-adv-x="561" 
d="M561 770h-141v-770h-287v770h-113v236h113v325h287v-325h141v-236zM475 -168l-295 -324l-109 84l236 365z" />
    <glyph glyph-name="Tcaron" unicode="&#x164;" horiz-adv-x="924" 
d="M903 1278h-291v-1278h-301v1278h-291v266h883v-266zM788 1903l-325 -254l-326 254l74 117l252 -138l252 138z" />
    <glyph glyph-name="tcaron" unicode="&#x165;" horiz-adv-x="850" 
d="M561 770h-141v-770h-287v770h-113v236h113v325h287v-325h141v-236zM899 1544l-207 -459h-190l110 459h287z" />
    <glyph glyph-name="Utilde" unicode="&#x168;" horiz-adv-x="1352" 
d="M1239 600q0 -307 -145.5 -470t-417.5 -163q-268 0 -415.5 167.5t-147.5 465.5v944h311v-997q0 -149 64.5 -226t187.5 -77q128 0 190 75t62 228v997h311v-944zM1016 1876q-31 -94 -88.5 -146t-129.5 -52q-32 0 -66.5 12.5t-78.5 40.5q-5 3 -14 9q-65 42 -92 42
q-29 0 -51 -21.5t-48 -72.5l-112 70q34 96 88 146t125 50q31 0 65.5 -12t81.5 -41q5 -3 13 -9q67 -42 94 -42q30 0 50 17.5t50 76.5z" />
    <glyph glyph-name="utilde" unicode="&#x169;" horiz-adv-x="1096" 
d="M997 451q0 -251 -108 -367.5t-340 -116.5q-242 0 -346.5 113t-104.5 371v555h287v-586q0 -102 40 -150.5t124 -48.5q79 0 120.5 51t41.5 148v586h286v-555zM889 1337q-31 -94 -88.5 -146t-129.5 -52q-32 0 -66.5 12.5t-78.5 40.5q-5 3 -14 9q-65 42 -92 42
q-29 0 -51 -21.5t-48 -72.5l-112 70q34 96 88 146t125 50q31 0 65.5 -12t81.5 -41q5 -3 13 -9q67 -42 94 -42q30 0 50 17.5t50 76.5z" />
    <glyph glyph-name="Umacron" unicode="&#x16a;" horiz-adv-x="1352" 
d="M1239 600q0 -307 -145.5 -470t-417.5 -163q-268 0 -415.5 167.5t-147.5 465.5v944h311v-997q0 -149 64.5 -226t187.5 -77q128 0 190 75t62 228v997h311v-944zM962 1727h-573v176h573v-176z" />
    <glyph glyph-name="umacron" unicode="&#x16b;" horiz-adv-x="1096" 
d="M997 451q0 -251 -108 -367.5t-340 -116.5q-242 0 -346.5 113t-104.5 371v555h287v-586q0 -102 40 -150.5t124 -48.5q79 0 120.5 51t41.5 148v586h286v-555zM835 1188h-573v176h573v-176z" />
    <glyph glyph-name="Ubreve" unicode="&#x16c;" horiz-adv-x="1352" 
d="M1239 600q0 -307 -145.5 -470t-417.5 -163q-268 0 -415.5 167.5t-147.5 465.5v944h311v-997q0 -149 64.5 -226t187.5 -77q128 0 190 75t62 228v997h311v-944zM993 1971q-34 -141 -110 -207t-205 -66q-132 0 -215.5 72t-102.5 201l121 49q17 -70 68.5 -109t128.5 -39
q76 0 126.5 39t67.5 109z" />
    <glyph glyph-name="ubreve" unicode="&#x16d;" horiz-adv-x="1096" 
d="M997 451q0 -251 -108 -367.5t-340 -116.5q-242 0 -346.5 113t-104.5 371v555h287v-586q0 -102 40 -150.5t124 -48.5q79 0 120.5 51t41.5 148v586h286v-555zM866 1432q-34 -141 -110 -207t-205 -66q-132 0 -215.5 72t-102.5 201l121 49q17 -70 68.5 -109t128.5 -39
q76 0 126.5 39t67.5 109z" />
    <glyph glyph-name="Uring" unicode="&#x16e;" horiz-adv-x="1352" 
d="M1239 600q0 -307 -145.5 -470t-417.5 -163q-268 0 -415.5 167.5t-147.5 465.5v944h311v-997q0 -149 64.5 -226t187.5 -77q128 0 190 75t62 228v997h311v-944zM764 1858q0 37 -25.5 62.5t-62.5 25.5q-36 0 -61 -25.5t-25 -62.5t24.5 -61.5t61.5 -24.5t62.5 24.5t25.5 61.5
zM899 1858q0 -93 -65 -158t-158 -65q-92 0 -156.5 64.5t-64.5 158.5q0 92 64.5 157.5t156.5 65.5t157.5 -65.5t65.5 -157.5z" />
    <glyph glyph-name="uring" unicode="&#x16f;" horiz-adv-x="1096" 
d="M997 451q0 -251 -108 -367.5t-340 -116.5q-242 0 -346.5 113t-104.5 371v555h287v-586q0 -102 40 -150.5t124 -48.5q79 0 120.5 51t41.5 148v586h286v-555zM637 1319q0 37 -25.5 62.5t-62.5 25.5q-36 0 -61 -25.5t-25 -62.5t24.5 -61.5t61.5 -24.5t62.5 24.5t25.5 61.5z
M772 1319q0 -93 -65 -158t-158 -65q-92 0 -156.5 64.5t-64.5 158.5q0 92 64.5 157.5t156.5 65.5t157.5 -65.5t65.5 -157.5z" />
    <glyph glyph-name="Udblacute" unicode="&#x170;" horiz-adv-x="1352" 
d="M1239 600q0 -307 -145.5 -470t-417.5 -163q-268 0 -415.5 167.5t-147.5 465.5v944h311v-997q0 -149 64.5 -226t187.5 -77q128 0 190 75t62 228v997h311v-944zM748 1930l-193 -281l-121 66l127 313zM1061 1891l-260 -242l-102 92l202 287z" />
    <glyph glyph-name="udblacute" unicode="&#x171;" horiz-adv-x="1096" 
d="M997 451q0 -251 -108 -367.5t-340 -116.5q-242 0 -346.5 113t-104.5 371v555h287v-586q0 -102 40 -150.5t124 -48.5q79 0 120.5 51t41.5 148v586h286v-555zM621 1391l-193 -281l-121 66l127 313zM934 1352l-260 -242l-102 92l202 287z" />
    <glyph glyph-name="Uogonek" unicode="&#x172;" horiz-adv-x="1352" 
d="M1239 600q0 -265 -109.5 -423.5t-318.5 -196.5q-44 -48 -65 -93.5t-21 -91.5q0 -58 32 -79t111 -21v-174q-189 0 -260 43t-71 162q0 57 31.5 119.5t90.5 121.5q-259 6 -402.5 173.5t-143.5 459.5v944h311v-997q0 -149 64.5 -226t187.5 -77q128 0 190 75t62 228v997h311
v-944z" />
    <glyph glyph-name="uogonek" unicode="&#x173;" horiz-adv-x="1096" 
d="M997 451q0 -217 -79.5 -332.5t-247.5 -143.5q-43 -47 -63.5 -91t-20.5 -89q0 -58 32 -79t111 -21v-174q-190 0 -261 43t-71 162q0 57 32 119.5t91 121.5q-225 6 -323.5 119.5t-98.5 364.5v555h287v-586q0 -102 40 -150.5t124 -48.5q79 0 120.5 51t41.5 148v586h286v-555z
" />
    <glyph glyph-name="Wcircumflex" unicode="&#x174;" horiz-adv-x="2001" 
d="M2011 1544l-440 -1544h-297l-273 1110l-274 -1110h-297l-440 1544h327l267 -1065l274 1065h285l274 -1065l266 1065h328zM1327 1766l-73 -117l-252 137l-252 -137l-74 117l326 254z" />
    <glyph glyph-name="wcircumflex" unicode="&#x175;" horiz-adv-x="1604" 
d="M1614 1006l-357 -1006h-284l-170 602l-170 -602h-285l-358 1006h317l182 -652l170 652h285l170 -652l182 652h318zM1128 1227l-73 -117l-252 137l-252 -137l-74 117l326 254z" />
    <glyph glyph-name="Ycircumflex" unicode="&#x176;" horiz-adv-x="1202" 
d="M1212 1544l-460 -860v-684h-301v684l-461 860h344l272 -583l264 583h342zM928 1766l-73 -117l-252 137l-252 -137l-74 117l326 254z" />
    <glyph glyph-name="ycircumflex" unicode="&#x177;" horiz-adv-x="1065" 
d="M1065 1006l-563 -1538h-318l211 557l-381 981h318l209 -648l207 648h317zM872 1227l-73 -117l-252 137l-252 -137l-74 117l326 254z" />
    <glyph glyph-name="Ydieresis" unicode="&#x178;" horiz-adv-x="1202" 
d="M1212 1544l-460 -860v-684h-301v684l-461 860h344l272 -583l264 583h342zM545 1817q0 -57 -36.5 -94t-92.5 -37q-55 0 -93 38t-38 93q0 51 39.5 90t91.5 39q54 0 91.5 -37.5t37.5 -91.5zM920 1817q0 -57 -36.5 -94t-92.5 -37q-55 0 -93 38t-38 93q0 51 39.5 90t91.5 39
q54 0 91.5 -37.5t37.5 -91.5z" />
    <glyph glyph-name="Zacute" unicode="&#x179;" horiz-adv-x="1178" 
d="M1157 1544l-698 -1278h678v-266h-1147l702 1278h-624v266h1089zM869 1852l-387 -203l-74 117l346 262z" />
    <glyph glyph-name="zacute" unicode="&#x17a;" horiz-adv-x="985" 
d="M944 1006l-475 -764h471v-242h-940l481 764h-426v242h889zM772 1313l-387 -203l-74 117l346 262z" />
    <glyph glyph-name="Zdot" unicode="&#x17b;" horiz-adv-x="1178" 
d="M1157 1544l-698 -1278h678v-266h-1147l702 1278h-624v266h1089zM727 1817q0 -58 -39 -96.5t-98 -38.5q-55 0 -95 40t-40 95q0 53 41.5 95t93.5 42q55 0 96 -41t41 -96z" />
    <glyph glyph-name="zdot" unicode="&#x17c;" horiz-adv-x="985" 
d="M944 1006l-475 -764h471v-242h-940l481 764h-426v242h889zM630 1278q0 -58 -39 -96.5t-98 -38.5q-55 0 -95 40t-40 95q0 53 41.5 95t93.5 42q55 0 96 -41t41 -96z" />
    <glyph glyph-name="Zcaron" unicode="&#x17d;" horiz-adv-x="1178" 
d="M1157 1544l-698 -1278h678v-266h-1147l702 1278h-624v266h1089zM915 1903l-325 -254l-326 254l74 117l252 -138l252 138z" />
    <glyph glyph-name="zcaron" unicode="&#x17e;" horiz-adv-x="985" 
d="M944 1006l-475 -764h471v-242h-940l481 764h-426v242h889zM819 1364l-325 -254l-326 254l74 117l252 -138l252 138z" />
    <glyph glyph-name="florin" unicode="&#x192;" 
d="M1057 1530l-39 -246q-35 18 -68.5 28.5t-58.5 10.5q-57 0 -87 -39.5t-42 -127.5l-19 -150h228l-29 -236h-227l-86 -719q-22 -188 -112.5 -283.5t-246.5 -95.5q-53 0 -113.5 12.5t-111.5 34.5l39 246q35 -18 68.5 -28.5t58.5 -10.5q58 0 88.5 40.5t40.5 127.5l82 676h-227
l28 236h228l22 192q22 181 116.5 280t241.5 99q54 0 114 -12.5t112 -34.5z" />
    <glyph glyph-name="circumflex" unicode="&#x2c6;" horiz-adv-x="819" 
d="M735 1227l-73 -117l-252 137l-252 -137l-74 117l326 254z" />
    <glyph glyph-name="caron" unicode="&#x2c7;" horiz-adv-x="819" 
d="M735 1364l-325 -254l-326 254l74 117l252 -138l252 138z" />
    <glyph glyph-name="macron" unicode="&#x2c9;" horiz-adv-x="819" 
d="M696 1188h-573v176h573v-176z" />
    <glyph glyph-name="breve" unicode="&#x2d8;" horiz-adv-x="819" 
d="M727 1432q-34 -141 -110 -207t-205 -66q-132 0 -215.5 72t-102.5 201l121 49q17 -70 68.5 -109t128.5 -39q76 0 126.5 39t67.5 109z" />
    <glyph glyph-name="dotaccent" unicode="&#x2d9;" horiz-adv-x="778" 
d="M526 1278q0 -58 -39 -96.5t-98 -38.5q-55 0 -95 40t-40 95q0 53 41.5 95t93.5 42q55 0 96 -41t41 -96z" />
    <glyph glyph-name="ring" unicode="&#x2da;" horiz-adv-x="778" 
d="M477 1319q0 37 -25.5 62.5t-62.5 25.5q-36 0 -61 -25.5t-25 -62.5t24.5 -61.5t61.5 -24.5t62.5 24.5t25.5 61.5zM612 1319q0 -93 -65 -158t-158 -65q-92 0 -156.5 64.5t-64.5 158.5q0 92 64.5 157.5t156.5 65.5t157.5 -65.5t65.5 -157.5z" />
    <glyph glyph-name="ogonek" unicode="&#x2db;" horiz-adv-x="778" 
d="M541 -479q-190 0 -261 43t-71 162q0 65 41 136.5t117 137.5h137q-54 -54 -80.5 -104.5t-26.5 -100.5q0 -58 32 -79t112 -21v-174z" />
    <glyph glyph-name="tilde" unicode="&#x2dc;" horiz-adv-x="819" 
d="M750 1337q-31 -94 -88.5 -146t-129.5 -52q-32 0 -66.5 12.5t-78.5 40.5q-5 3 -14 9q-65 42 -92 42q-29 0 -51 -21.5t-48 -72.5l-112 70q34 96 88 146t125 50q31 0 65.5 -12t81.5 -41q5 -3 13 -9q67 -42 94 -42q30 0 50 17.5t50 76.5z" />
    <glyph glyph-name="hungarumlaut" unicode="&#x2dd;" horiz-adv-x="860" 
d="M502 1391l-193 -281l-121 66l127 313zM815 1352l-260 -242l-102 92l202 287z" />
    <glyph glyph-name="U037e" unicode="&#x37e;" horiz-adv-x="592" 
d="M487 297l-288 -635h-191l172 635h307zM498 866q0 -71 -50 -120.5t-122 -49.5t-122 50t-50 120q0 72 50 122t122 50q71 0 121.5 -50t50.5 -122z" />
    <glyph glyph-name="tonos" unicode="&#x384;" horiz-adv-x="487" 
d="M344 1544l-31 -418h-139l-31 418h201z" />
    <glyph glyph-name="dieresistonos" unicode="&#x385;" horiz-adv-x="983" 
d="M332 1278q0 -57 -37 -94t-92 -37q-56 0 -93.5 38t-37.5 93q0 52 39 90.5t92 38.5q54 0 91.5 -37.5t37.5 -91.5zM592 1544l-31 -418h-139l-31 418h201zM911 1278q0 -57 -36.5 -94t-92.5 -37q-55 0 -93 38t-38 93q0 52 39.5 90.5t91.5 38.5q54 0 91.5 -37.5t37.5 -91.5z
" />
    <glyph glyph-name="Alphatonos" unicode="&#x386;" horiz-adv-x="1991" 
d="M344 1544l-31 -418h-139l-31 418h201zM1493 588l-195 657l-194 -657h389zM2001 0h-336l-101 342h-530l-102 -342h-336l524 1544h358z" />
    <glyph glyph-name="anoteleia" unicode="&#x387;" horiz-adv-x="592" 
d="M471 793q0 -71 -50 -120.5t-122 -49.5q-71 0 -121.5 50t-50.5 120q0 71 50.5 121.5t121.5 50.5t121.5 -50.5t50.5 -121.5z" />
    <glyph glyph-name="Epsilontonos" unicode="&#x388;" horiz-adv-x="1487" 
d="M344 1544l-31 -418h-139l-31 418h201zM1384 0h-774v1544h774v-266h-467v-360h467v-267h-467v-385h467v-266z" />
    <glyph glyph-name="Etatonos" unicode="&#x389;" horiz-adv-x="1868" 
d="M344 1544l-31 -418h-139l-31 418h201zM1744 0h-301v651h-532v-651h-301v1544h301v-626h532v626h301v-1544z" />
    <glyph glyph-name="Iotatonos" unicode="&#x38a;" horiz-adv-x="1008" 
d="M344 1544l-31 -418h-139l-31 418h201zM899 0h-301v1544h301v-1544z" />
    <glyph glyph-name="Omicrontonos" unicode="&#x38c;" horiz-adv-x="2118" 
d="M344 1544l-31 -418h-139l-31 418h201zM1765 772q0 224 -124.5 366t-323.5 142q-200 0 -324.5 -142t-124.5 -366t124.5 -366t324.5 -142q199 0 323.5 142t124.5 366zM2077 772q0 -345 -218.5 -575t-541.5 -230t-541.5 230t-218.5 575t218.5 575t541.5 230t541.5 -230
t218.5 -575z" />
    <glyph glyph-name="Upsilontonos" unicode="&#x38e;" horiz-adv-x="1690" 
d="M344 1544l-31 -418h-139l-31 418h201zM1699 1544l-460 -860v-684h-301v684l-461 860h344l272 -583l264 583h342z" />
    <glyph glyph-name="Omegatonos" unicode="&#x38f;" horiz-adv-x="2134" 
d="M344 1544l-31 -418h-139l-31 418h201zM2114 0h-699v264q159 43 258 188t99 330q0 222 -124 360t-325 138t-325 -138t-124 -360q0 -185 99 -330t258 -188v-264h-699v254h306q-126 80 -200.5 222.5t-74.5 305.5q0 343 217.5 569t542.5 226t542.5 -226t217.5 -569
q0 -163 -74.5 -305.5t-200.5 -222.5h306v-254z" />
    <glyph glyph-name="iotedieresistonos" unicode="&#x390;" horiz-adv-x="518" 
d="M403 0h-286v1006h286v-1006zM101 1278q0 -57 -37 -94t-92 -37q-56 0 -93.5 38t-37.5 93q0 52 39 90.5t92 38.5q54 0 91.5 -37.5t37.5 -91.5zM361 1544l-31 -418h-139l-31 418h201zM680 1278q0 -57 -36.5 -94t-92.5 -37q-55 0 -93 38t-38 93q0 52 39.5 90.5t91.5 38.5
q54 0 91.5 -37.5t37.5 -91.5z" />
    <glyph glyph-name="Alpha" unicode="&#x391;" horiz-adv-x="1384" 
d="M887 588l-195 657l-194 -657h389zM1395 0h-336l-101 342h-530l-102 -342h-336l524 1544h358z" />
    <glyph glyph-name="Beta" unicode="&#x392;" horiz-adv-x="1133" 
d="M758 477q0 102 -64.5 156.5t-185.5 54.5h-78v-432h78q125 0 187.5 55t62.5 166zM729 1114q0 94 -56.5 134t-185.5 40h-57v-354h57q118 0 180 46.5t62 133.5zM1071 461q0 -226 -148 -343.5t-436 -117.5h-364v1544h364q274 0 403.5 -99t129.5 -308q0 -128 -67.5 -213.5
t-182.5 -106.5q135 -13 218 -110.5t83 -245.5z" />
    <glyph glyph-name="Gamma" unicode="&#x393;" horiz-adv-x="823" 
d="M803 1278h-379v-1278h-301v1544h680v-266z" />
    <glyph glyph-name="glyph335" unicode="&#x394;" horiz-adv-x="1384" 
d="M987 246l-295 999l-295 -999h590zM1395 0h-1405l524 1544h358z" />
    <glyph glyph-name="Epsilon" unicode="&#x395;" horiz-adv-x="999" 
d="M897 0h-774v1544h774v-266h-467v-360h467v-267h-467v-385h467v-266z" />
    <glyph glyph-name="Zeta" unicode="&#x396;" horiz-adv-x="1178" 
d="M1157 1544l-698 -1278h678v-266h-1147l702 1278h-624v266h1089z" />
    <glyph glyph-name="Eta" unicode="&#x397;" horiz-adv-x="1380" 
d="M1257 0h-301v651h-532v-651h-301v1544h301v-626h532v626h301v-1544z" />
    <glyph glyph-name="Theta" unicode="&#x398;" horiz-adv-x="1602" 
d="M1094 651h-586v267h586v-267zM1249 772q0 224 -124.5 366t-323.5 142q-200 0 -324.5 -142t-124.5 -366t124.5 -366t324.5 -142q199 0 323.5 142t124.5 366zM1561 772q0 -345 -218.5 -575t-541.5 -230t-541.5 230t-218.5 575t218.5 575t541.5 230t541.5 -230t218.5 -575z
" />
    <glyph glyph-name="Iota" unicode="&#x399;" horiz-adv-x="520" 
d="M412 0h-301v1544h301v-1544z" />
    <glyph glyph-name="Kappa" unicode="&#x39a;" horiz-adv-x="1270" 
d="M1305 0h-365l-516 807v-807h-301v1544h301v-702l512 702h350l-549 -706z" />
    <glyph glyph-name="Lambda" unicode="&#x39b;" horiz-adv-x="1309" 
d="M1321 0h-346l-320 1147l-319 -1147h-346l502 1544h327z" />
    <glyph glyph-name="Mu" unicode="&#x39c;" horiz-adv-x="1712" 
d="M1696 0h-297l-142 1133l-313 -1133h-176l-313 1133l-142 -1133h-297l213 1544h369l258 -936l279 936h348z" />
    <glyph glyph-name="Nu" unicode="&#x39d;" horiz-adv-x="1554" 
d="M1432 0h-295l-719 1042v-1042h-295v1544h295l719 -1038v1038h295v-1544z" />
    <glyph glyph-name="Xi" unicode="&#x39e;" horiz-adv-x="1139" 
d="M1036 0h-934v266h934v-266zM1036 651h-934v267h934v-267zM1036 1278h-934v266h934v-266z" />
    <glyph glyph-name="Omicron" unicode="&#x39f;" horiz-adv-x="1602" 
d="M1249 772q0 224 -124.5 366t-323.5 142q-200 0 -324.5 -142t-124.5 -366t124.5 -366t324.5 -142q199 0 323.5 142t124.5 366zM1561 772q0 -345 -218.5 -575t-541.5 -230t-541.5 230t-218.5 575t218.5 575t541.5 230t541.5 -230t218.5 -575z" />
    <glyph glyph-name="Pi" unicode="&#x3a0;" horiz-adv-x="1380" 
d="M1257 0h-301v1278h-532v-1278h-301v1544h1134v-1544z" />
    <glyph glyph-name="Rho" unicode="&#x3a1;" horiz-adv-x="1081" 
d="M719 1073q0 110 -62 167.5t-182 57.5h-51v-452h51q129 0 186.5 53.5t57.5 173.5zM1030 1073q0 -216 -152 -344.5t-411 -128.5h-43v-600h-301v1544h344q273 0 418 -121.5t145 -349.5z" />
    <glyph glyph-name="Sigma" unicode="&#x3a3;" horiz-adv-x="1229" 
d="M1157 0h-1147l428 780l-428 764h1147v-266h-678l281 -498l-281 -514h678v-266z" />
    <glyph glyph-name="Tau" unicode="&#x3a4;" horiz-adv-x="924" 
d="M903 1278h-291v-1278h-301v1278h-291v266h883v-266z" />
    <glyph glyph-name="Upsilon" unicode="&#x3a5;" horiz-adv-x="1202" 
d="M1212 1544l-460 -860v-684h-301v684l-461 860h344l272 -583l264 583h342z" />
    <glyph glyph-name="Phi" unicode="&#x3a6;" horiz-adv-x="1655" 
d="M676 436v694q-158 0 -246 -92.5t-88 -255.5q0 -160 89 -253t245 -93zM1311 782q0 163 -88 255.5t-246 92.5v-694q156 0 245 93t89 253zM1614 782q0 -269 -171.5 -431.5t-465.5 -168.5v-182h-301v182q-294 6 -464.5 168.5t-170.5 431.5q0 272 171.5 434t463.5 168v160h301
v-160q292 -6 464.5 -168t172.5 -434z" />
    <glyph glyph-name="Chi" unicode="&#x3a7;" horiz-adv-x="1276" 
d="M1272 0h-357l-278 545l-279 -545h-354l457 809l-445 735h355l272 -502l262 502h352l-440 -735z" />
    <glyph glyph-name="Psi" unicode="&#x3a8;" horiz-adv-x="1661" 
d="M1548 977q0 -382 -128 -531t-439 -152v-294h-301v294q-308 2 -437.5 151.5t-129.5 531.5v567h301v-588q0 -231 60 -318t206 -89v995h301v-995q145 1 205.5 89t60.5 318v588h301v-567z" />
    <glyph glyph-name="glyph355" unicode="&#x3a9;" horiz-adv-x="1622" 
d="M1602 0h-699v264q159 43 258 188t99 330q0 222 -124 360t-325 138t-325 -138t-124 -360q0 -185 99 -330t258 -188v-264h-699v254h306q-126 80 -200.5 222.5t-74.5 305.5q0 343 217.5 569t542.5 226t542.5 -226t217.5 -569q0 -163 -74.5 -305.5t-200.5 -222.5h306v-254z
" />
    <glyph glyph-name="Iotadieresis" unicode="&#x3aa;" horiz-adv-x="520" 
d="M412 0h-301v1544h301v-1544zM202 1817q0 -57 -36.5 -94t-92.5 -37q-55 0 -93 38t-38 93q0 52 39.5 90.5t91.5 38.5q54 0 91.5 -37.5t37.5 -91.5zM577 1817q0 -57 -36.5 -94t-92.5 -37q-55 0 -93 38t-38 93q0 52 39 90.5t92 38.5q54 0 91.5 -37.5t37.5 -91.5z" />
    <glyph glyph-name="Upsilondieresis" unicode="&#x3ab;" horiz-adv-x="1202" 
d="M1212 1544l-460 -860v-684h-301v684l-461 860h344l272 -583l264 583h342zM545 1817q0 -57 -36.5 -94t-92.5 -37q-55 0 -93 38t-38 93q0 52 39.5 90.5t91.5 38.5q54 0 91.5 -37.5t37.5 -91.5zM920 1817q0 -57 -36.5 -94t-92.5 -37q-55 0 -93 38t-38 93q0 52 39 90.5
t92 38.5q54 0 91.5 -37.5t37.5 -91.5z" />
    <glyph glyph-name="alphatonos" unicode="&#x3ac;" horiz-adv-x="1157" 
d="M768 502q0 119 -63.5 200.5t-157.5 81.5t-156.5 -81t-62.5 -201t62 -200.5t157 -80.5t158 81t63 200zM1055 0h-287v115q-44 -73 -112.5 -110.5t-157.5 -37.5q-207 0 -334 150t-127 385t127 385.5t334 150.5q95 0 166 -38.5t104 -108.5v115h287v-1006zM680 1544l-31 -418
h-139l-31 418h201z" />
    <glyph glyph-name="epsilontonos" unicode="&#x3ad;" horiz-adv-x="801" 
d="M729 41q-70 -40 -131.5 -57t-140.5 -17q-187 0 -296.5 81t-109.5 214q0 98 50 169t141 99q-94 23 -142.5 82.5t-48.5 153.5q0 134 103 203t305 69q75 0 143.5 -17t126.5 -50v-254q-46 42 -107 65t-124 23q-75 0 -115.5 -27t-40.5 -78q0 -54 41.5 -79t134.5 -25v-129
q-86 0 -131 -35t-45 -100q0 -62 44 -96.5t118 -34.5q61 0 119.5 21t105.5 61v-242zM502 1544l-31 -418h-139l-31 418h201z" />
    <glyph glyph-name="etatonos" unicode="&#x3ae;" horiz-adv-x="1106" 
d="M1008 -532h-285v1124q0 114 -34.5 165.5t-110.5 51.5q-83 0 -136 -78t-53 -215v-516h-287v1006h287v-117q41 73 119.5 111t185.5 38q155 0 234.5 -103.5t79.5 -305.5v-1161zM653 1544l-31 -418h-139l-31 418h201z" />
    <glyph glyph-name="iotatonos" unicode="&#x3af;" horiz-adv-x="518" 
d="M403 0h-286v1006h286v-1006zM360 1544l-31 -418h-139l-31 418h201z" />
    <glyph glyph-name="upsilondieresistonos" unicode="&#x3b0;" horiz-adv-x="1096" 
d="M997 451q0 -251 -108 -367.5t-340 -116.5q-242 0 -346.5 113t-104.5 371v555h287v-586q0 -102 40 -150.5t124 -48.5q79 0 120.5 51t41.5 148v586h286v-555zM389 1278q0 -57 -37 -94t-92 -37q-56 0 -93.5 38t-37.5 93q0 52 39 90.5t92 38.5q54 0 91.5 -37.5t37.5 -91.5z
M649 1544l-31 -418h-139l-31 418h201zM968 1278q0 -57 -36.5 -94t-92.5 -37q-55 0 -93 38t-38 93q0 52 39.5 90.5t91.5 38.5q54 0 91.5 -37.5t37.5 -91.5z" />
    <glyph glyph-name="alpha" unicode="&#x3b1;" horiz-adv-x="1157" 
d="M768 502q0 119 -63.5 200.5t-157.5 81.5t-156.5 -81t-62.5 -201t62 -200.5t157 -80.5t158 81t63 200zM1055 0h-287v115q-44 -73 -112.5 -110.5t-157.5 -37.5q-207 0 -334 150t-127 385t127 385.5t334 150.5q95 0 166 -38.5t104 -108.5v115h287v-1006z" />
    <glyph glyph-name="beta" unicode="&#x3b2;" horiz-adv-x="1163" 
d="M831 496q0 119 -66.5 196.5t-166.5 77.5h-86v236q106 0 156.5 58.5t50.5 182.5q0 99 -44 157t-116 58q-77 0 -118.5 -50t-41.5 -146v-793q0 -119 56 -185.5t155 -66.5q105 0 163 73t58 202zM1122 496q0 -261 -125 -395t-368 -134q-79 0 -147 36.5t-83 92.5v-628h-286
v1798q0 214 112.5 332t311.5 118q211 0 336.5 -130t125.5 -339q0 -113 -44.5 -195t-133.5 -130q139 -42 220 -157t81 -269z" />
    <glyph glyph-name="gamma" unicode="&#x3b3;" horiz-adv-x="999" 
d="M1010 1006l-367 -1006v-532h-287v538l-366 1000h317l193 -641l192 641h318z" />
    <glyph glyph-name="delta" unicode="&#x3b4;" horiz-adv-x="1122" 
d="M795 504q0 120 -67.5 200t-166.5 80q-103 0 -168 -78.5t-65 -201.5q0 -125 65.5 -204t167.5 -79q107 0 170.5 78t63.5 205zM1085 504q0 -228 -148.5 -382.5t-373.5 -154.5q-226 0 -376 154t-150 383q0 184 98 322.5t262 187.5q-87 60 -133.5 152.5t-46.5 201.5
q0 161 114.5 241.5t342.5 80.5h104v-248h-104q-100 0 -133 -23t-33 -80q0 -83 70.5 -163t252.5 -207q128 -89 191 -204.5t63 -260.5z" />
    <glyph glyph-name="epsilon" unicode="&#x3b5;" horiz-adv-x="801" 
d="M729 41q-70 -40 -131.5 -57t-140.5 -17q-187 0 -296.5 81t-109.5 214q0 98 50 169t141 99q-94 23 -142.5 82.5t-48.5 153.5q0 134 103 203t305 69q75 0 143.5 -17t126.5 -50v-254q-46 42 -107 65t-124 23q-75 0 -115.5 -27t-40.5 -78q0 -54 41.5 -79t134.5 -25v-129
q-86 0 -131 -35t-45 -100q0 -62 44 -96.5t118 -34.5q61 0 119.5 21t105.5 61v-242z" />
    <glyph glyph-name="zeta" unicode="&#x3b6;" horiz-adv-x="932" 
d="M922 1690q-315 -397 -447.5 -678t-132.5 -543q0 -120 48.5 -163.5t174.5 -43.5q154 0 242 -95.5t88 -254.5q0 -115 -54.5 -203.5t-172.5 -161.5l-152 179q49 28 73.5 65t24.5 80q0 73 -34.5 101t-112.5 28q-221 0 -318.5 103t-97.5 348q0 220 118.5 493t313.5 512h-340
v234h779z" />
    <glyph glyph-name="eta" unicode="&#x3b7;" horiz-adv-x="1106" 
d="M1008 -532h-285v1124q0 114 -34.5 165.5t-110.5 51.5q-83 0 -136 -78t-53 -215v-516h-287v1006h287v-117q41 73 119.5 111t185.5 38q155 0 234.5 -103.5t79.5 -305.5v-1161z" />
    <glyph glyph-name="theta" unicode="&#x3b8;" horiz-adv-x="1225" 
d="M870 770h-515q8 -250 78 -399.5t177 -149.5q110 0 180.5 148.5t79.5 400.5zM866 1006q-19 213 -87.5 334.5t-168.5 121.5q-98 0 -165 -121t-87 -335h508zM1163 844q0 -405 -149.5 -641t-403.5 -236t-401.5 234.5t-147.5 642.5t146.5 640t402.5 232q258 0 405.5 -232
t147.5 -640z" />
    <glyph glyph-name="iota" unicode="&#x3b9;" horiz-adv-x="518" 
d="M403 0h-286v1006h286v-1006z" />
    <glyph glyph-name="kappa" unicode="&#x3ba;" horiz-adv-x="1077" 
d="M1069 0h-352l-328 532v-532h-287v1006h287v-447l318 447h342l-347 -447z" />
    <glyph glyph-name="lambda" unicode="&#x3bb;" horiz-adv-x="1065" 
d="M1065 0h-317l-207 647l-209 -647h-318l381 981l-266 709h317z" />
    <glyph glyph-name="mu" unicode="&#x3bc;" horiz-adv-x="1114" 
d="M1012 0h-287v96q-16 -63 -59 -96t-109 -33t-109 33t-59 96v-628h-287v1538h287v-537q0 -135 43 -203.5t125 -68.5t125 68.5t43 203.5v537h287v-1006z" />
    <glyph glyph-name="nu" unicode="&#x3bd;" horiz-adv-x="999" 
d="M1010 1006l-367 -1006h-285l-368 1006h317l193 -641l192 641h318z" />
    <glyph glyph-name="xi" unicode="&#x3be;" horiz-adv-x="932" 
d="M911 -88q0 -115 -54.5 -203.5t-172.5 -161.5l-152 179q49 28 74 65t25 80q0 60 -36 94.5t-101 34.5q-214 0 -328.5 124t-114.5 357q0 153 94 267.5t244 148.5q-83 28 -138.5 115t-55.5 182q0 80 37.5 151t103.5 109h-227v236h727q-178 -108 -264.5 -227t-86.5 -257
q0 -96 64.5 -148t185.5 -52h51v-236h-141q-137 0 -220 -75t-83 -199q0 -120 58 -177t182 -57q153 0 241 -95.5t88 -254.5z" />
    <glyph glyph-name="omicron" unicode="&#x3bf;" horiz-adv-x="1122" 
d="M795 504q0 120 -67.5 200t-166.5 80q-103 0 -168 -78.5t-65 -201.5q0 -125 65.5 -204t167.5 -79q107 0 170.5 78t63.5 205zM1085 504q0 -228 -148.5 -382.5t-373.5 -154.5q-226 0 -376 154t-150 383q0 231 149 382.5t377 151.5q225 0 373.5 -153.5t148.5 -380.5z" />
    <glyph glyph-name="glyph378" unicode="&#x3c0;" horiz-adv-x="1096" 
d="M997 0h-286v770h-326v-770h-287v1006h899v-1006z" />
    <glyph glyph-name="rho" unicode="&#x3c1;" horiz-adv-x="1157" 
d="M829 504q0 118 -64 199t-159 81t-158 -80.5t-63 -199.5q0 -120 63.5 -201.5t157.5 -81.5q95 0 159 82t64 201zM1116 504q0 -235 -127 -386t-334 -151q-95 0 -166 39t-104 109v-647h-287v1015q0 251 139 403t369 152q234 0 372 -144t138 -390z" />
    <glyph glyph-name="sigma1" unicode="&#x3c2;" horiz-adv-x="942" 
d="M901 -102q0 -112 -53 -197.5t-164 -153.5l-137 162q42 32 67 73t25 81q0 72 -32 104.5t-99 32.5q-235 0 -353 130t-118 388q0 239 145.5 379.5t395.5 140.5q76 0 136.5 -14.5t116.5 -46.5v-287q-38 40 -105.5 67t-129.5 27q-122 0 -195 -72.5t-73 -191.5
q0 -123 60 -194.5t167 -71.5q166 0 256 -94t90 -262z" />
    <glyph glyph-name="sigma" unicode="&#x3c3;" horiz-adv-x="1122" 
d="M795 504q0 120 -67.5 200t-166.5 80q-103 0 -168 -78.5t-65 -201.5q0 -125 65.5 -204t167.5 -79q107 0 170.5 78t63.5 205zM1122 770h-143q49 -45 77.5 -117t28.5 -149q0 -245 -142 -391t-380 -146q-226 0 -376 154t-150 383q0 231 149 382.5t377 151.5q48 0 94 -8
t93 -24h372v-236z" />
    <glyph glyph-name="tau" unicode="&#x3c4;" horiz-adv-x="778" 
d="M758 770h-226v-770h-286v770h-226v236h738v-236z" />
    <glyph glyph-name="upsilon" unicode="&#x3c5;" horiz-adv-x="1096" 
d="M997 451q0 -251 -108 -367.5t-340 -116.5q-242 0 -346.5 113t-104.5 371v555h287v-586q0 -102 40 -150.5t124 -48.5q79 0 120.5 51t41.5 148v586h286v-555z" />
    <glyph glyph-name="phi" unicode="&#x3c6;" horiz-adv-x="1479" 
d="M1141 504q0 129 -64.5 192.5t-195.5 63.5v-514q136 0 198 61.5t62 196.5zM1427 504q0 -235 -137.5 -361.5t-408.5 -142.5v-532h-287v532q-248 0 -395.5 137t-147.5 367t129.5 366t360.5 136v-246q-93 0 -150 -69.5t-57 -186.5q0 -127 66.5 -192.5t193.5 -65.5v760h246
q277 0 432 -133.5t155 -368.5z" />
    <glyph glyph-name="chi" unicode="&#x3c7;" horiz-adv-x="1077" 
d="M1108 -532h-322l-251 540l-246 -540h-320l412 819l-371 719h332l201 -453l182 453h342l-371 -732z" />
    <glyph glyph-name="psi" unicode="&#x3c8;" horiz-adv-x="1516" 
d="M1417 580q0 -302 -125 -441t-391 -139v-532h-287v532q-265 0 -390.5 139t-125.5 441v426h287v-445q0 -173 51 -240t178 -67v752h287v-752q127 0 178 67t51 240v445h287v-426z" />
    <glyph glyph-name="omega" unicode="&#x3c9;" horiz-adv-x="1450" 
d="M1399 508q0 -257 -96.5 -399t-274.5 -142q-128 0 -205 55t-98 162q-21 -107 -98 -162t-205 -55q-178 0 -274.5 142t-96.5 399q0 160 32.5 273.5t111.5 224.5h268q-60 -93 -90.5 -211t-30.5 -258q0 -165 30.5 -240.5t96.5 -75.5q72 0 100.5 64.5t28.5 257.5v157h254v-157
q0 -193 28.5 -257.5t100.5 -64.5q66 0 96.5 75.5t30.5 240.5q0 140 -30.5 258t-90.5 211h268q78 -109 111 -224.5t33 -273.5z" />
    <glyph glyph-name="iotadieresis" unicode="&#x3ca;" horiz-adv-x="518" 
d="M403 0h-286v1006h286v-1006zM202 1278q0 -57 -36.5 -94t-92.5 -37q-55 0 -93 38t-38 93q0 52 39.5 90.5t91.5 38.5q54 0 91.5 -37.5t37.5 -91.5zM577 1278q0 -57 -36.5 -94t-92.5 -37q-55 0 -93 38t-38 93q0 52 39 90.5t92 38.5q54 0 91.5 -37.5t37.5 -91.5z" />
    <glyph glyph-name="upsilondieresis" unicode="&#x3cb;" horiz-adv-x="1096" 
d="M997 451q0 -251 -108 -367.5t-340 -116.5q-242 0 -346.5 113t-104.5 371v555h287v-586q0 -102 40 -150.5t124 -48.5q79 0 120.5 51t41.5 148v586h286v-555zM491 1278q0 -57 -36.5 -94t-92.5 -37q-55 0 -93 38t-38 93q0 52 39.5 90.5t91.5 38.5q54 0 91.5 -37.5
t37.5 -91.5zM866 1278q0 -57 -36.5 -94t-92.5 -37q-55 0 -93 38t-38 93q0 52 39 90.5t92 38.5q54 0 91.5 -37.5t37.5 -91.5z" />
    <glyph glyph-name="omicrontonos" unicode="&#x3cc;" horiz-adv-x="1122" 
d="M795 504q0 120 -67.5 200t-166.5 80q-103 0 -168 -78.5t-65 -201.5q0 -125 65.5 -204t167.5 -79q107 0 170.5 78t63.5 205zM1085 504q0 -228 -148.5 -382.5t-373.5 -154.5q-226 0 -376 154t-150 383q0 231 149 382.5t377 151.5q225 0 373.5 -153.5t148.5 -380.5z
M661 1544l-31 -418h-139l-31 418h201z" />
    <glyph glyph-name="upsilontonos" unicode="&#x3cd;" horiz-adv-x="1096" 
d="M997 451q0 -251 -108 -367.5t-340 -116.5q-242 0 -346.5 113t-104.5 371v555h287v-586q0 -102 40 -150.5t124 -48.5q79 0 120.5 51t41.5 148v586h286v-555zM649 1544l-31 -418h-139l-31 418h201z" />
    <glyph glyph-name="omegatonos" unicode="&#x3ce;" horiz-adv-x="1450" 
d="M1399 508q0 -257 -96.5 -399t-274.5 -142q-128 0 -205 55t-98 162q-21 -107 -98 -162t-205 -55q-178 0 -274.5 142t-96.5 399q0 160 32.5 273.5t111.5 224.5h268q-60 -93 -90.5 -211t-30.5 -258q0 -165 30.5 -240.5t96.5 -75.5q72 0 100.5 64.5t28.5 257.5v157h254v-157
q0 -193 28.5 -257.5t100.5 -64.5q66 0 96.5 75.5t30.5 240.5q0 140 -30.5 258t-90.5 211h268q78 -109 111 -224.5t33 -273.5zM825 1544l-31 -418h-139l-31 418h201z" />
    <glyph glyph-name="afii10023" unicode="&#x401;" horiz-adv-x="999" 
d="M897 0h-774v1544h774v-266h-467v-360h467v-267h-467v-385h467v-266zM422 1827q0 -57 -38 -95t-95 -38q-56 0 -95.5 39t-39.5 94q0 53 40.5 93t94.5 40q55 0 94 -39t39 -94zM848 1827q0 -57 -38 -95t-95 -38q-56 0 -95.5 39t-39.5 94q0 53 40.5 93t94.5 40q55 0 94 -39
t39 -94z" />
    <glyph glyph-name="afii10051" unicode="&#x402;" horiz-adv-x="1479" 
d="M1438 512q0 -264 -146.5 -404.5t-427.5 -140.5v277q132 0 202.5 67.5t70.5 192.5q0 122 -70 190t-193 68q-137 0 -262 -57v-705h-301v1278h-291v266h883v-266h-291v-289q54 24 121.5 36.5t140.5 12.5q271 0 417.5 -137t146.5 -389z" />
    <glyph glyph-name="afii10052" unicode="&#x403;" horiz-adv-x="823" 
d="M803 1278h-379v-1278h-301v1544h680v-266zM691 1852l-387 -203l-74 117l346 262z" />
    <glyph glyph-name="afii10053" unicode="&#x404;" horiz-adv-x="1231" 
d="M1190 84q-62 -46 -182 -81.5t-217 -35.5q-348 0 -549 218.5t-201 588.5q0 352 207.5 577.5t548.5 225.5q127 0 220 -24t173 -78v-334q-79 70 -174 107.5t-191 37.5q-177 0 -298.5 -99t-157.5 -274h606v-266h-610q29 -184 141.5 -286.5t288.5 -102.5q123 0 219 41t176 127
v-342z" />
    <glyph glyph-name="afii10054" unicode="&#x405;" horiz-adv-x="1077" 
d="M1018 426q0 -221 -130 -340t-374 -119q-169 0 -294 61.5t-181 172.5l190 213q31 -80 111.5 -130.5t173.5 -50.5q95 0 144 44t49 129q0 74 -65.5 134t-231.5 152q-182 101 -257 205t-75 246q0 198 130.5 316t352.5 118q135 0 238 -50.5t172 -150.5l-185 -202
q-29 59 -94 98t-135 39q-80 0 -127 -41.5t-47 -102.5q0 -123 219 -241q40 -21 62 -33q192 -107 273 -213t81 -254z" />
    <glyph glyph-name="afii10055" unicode="&#x406;" horiz-adv-x="520" 
d="M412 0h-301v1544h301v-1544z" />
    <glyph glyph-name="afii10056" unicode="&#x407;" horiz-adv-x="520" 
d="M412 0h-301v1544h301v-1544zM201 1827q0 -57 -38.5 -95t-94.5 -38t-96 39t-40 94q0 53 41 93t95 40q55 0 94 -39t39 -94zM588 1827q0 -57 -38.5 -95t-94.5 -38t-96 39t-40 94q0 53 41 93t95 40q55 0 94 -39t39 -94z" />
    <glyph glyph-name="afii10057" unicode="&#x408;" horiz-adv-x="797" 
d="M684 485q0 -301 -81 -409.5t-290 -108.5q-150 0 -231 81.5t-92 242.5l258 92q0 -76 15.5 -107.5t51.5 -31.5q43 0 55.5 52.5t12.5 184.5v1063h301v-1059z" />
    <glyph glyph-name="afii10058" unicode="&#x409;" horiz-adv-x="1757" 
d="M1395 457q0 112 -58.5 163.5t-185.5 51.5h-51v-426h51q123 0 183.5 52t60.5 159zM1706 457q0 -225 -143 -341t-420 -116h-344v1278h-332v-811q0 -292 -100.5 -396t-356.5 -104v277q101 0 128.5 52t27.5 234v1014h934v-626h43q262 0 412.5 -124t150.5 -337z" />
    <glyph glyph-name="afii10059" unicode="&#x40a;" horiz-adv-x="1757" 
d="M1395 457q0 112 -58.5 163.5t-185.5 51.5h-51v-426h51q123 0 183.5 52t60.5 159zM1706 457q0 -225 -143 -341t-420 -116h-344v672h-375v-672h-301v1544h301v-626h375v626h301v-626h43q262 0 412.5 -124t150.5 -337z" />
    <glyph glyph-name="afii10060" unicode="&#x40b;" horiz-adv-x="1550" 
d="M1438 0h-301v479q0 142 -65.5 212.5t-197.5 70.5q-137 0 -262 -57v-705h-301v1278h-291v266h883v-266h-291v-289q54 24 121.5 36.5t140.5 12.5q280 0 422 -143.5t142 -427.5v-467z" />
    <glyph glyph-name="afii10061" unicode="&#x40c;" horiz-adv-x="1270" 
d="M1305 0h-365l-516 807v-807h-301v1544h301v-702l512 702h350l-549 -706zM914 1852l-387 -203l-74 117l346 262z" />
    <glyph glyph-name="afii10062" unicode="&#x40e;" horiz-adv-x="1280" 
d="M1296 1544l-751 -1544h-328l322 655l-549 889h358l334 -608l287 608h327zM990 1944q-33 -130 -121 -196t-228 -66t-231 68t-117 194l160 49q17 -82 66 -127t122 -45q74 0 123.5 46.5t63.5 125.5z" />
    <glyph glyph-name="afii10145" unicode="&#x40f;" horiz-adv-x="1380" 
d="M1257 0h-415v-328h-301v328h-418v1544h301v-1278h532v1278h301v-1544z" />
    <glyph glyph-name="afii10017" unicode="&#x410;" horiz-adv-x="1384" 
d="M887 588l-195 657l-194 -657h389zM1395 0h-336l-101 342h-530l-102 -342h-336l524 1544h358z" />
    <glyph glyph-name="afii10018" unicode="&#x411;" horiz-adv-x="1081" 
d="M719 457q0 112 -58.5 163.5t-185.5 51.5h-51v-426h51q123 0 183.5 52t60.5 159zM1030 457q0 -225 -143 -341t-420 -116h-344v1544h721v-266h-420v-360h43q262 0 412.5 -124t150.5 -337z" />
    <glyph glyph-name="afii10019" unicode="&#x412;" horiz-adv-x="1133" 
d="M758 477q0 102 -64.5 156.5t-185.5 54.5h-78v-432h78q125 0 187.5 55t62.5 166zM729 1114q0 94 -56.5 134t-185.5 40h-57v-354h57q118 0 180 46.5t62 133.5zM1071 461q0 -226 -148 -343.5t-436 -117.5h-364v1544h364q274 0 403.5 -99t129.5 -308q0 -128 -67.5 -213.5
t-182.5 -106.5q135 -13 218 -110.5t83 -245.5z" />
    <glyph glyph-name="afii10020" unicode="&#x413;" horiz-adv-x="823" 
d="M803 1278h-379v-1278h-301v1544h680v-266z" />
    <glyph glyph-name="afii10021" unicode="&#x414;" horiz-adv-x="1434" 
d="M999 266v1012h-532v-789q0 -76 -7 -132.5t-22 -90.5h561zM1423 -328h-284v328h-842v-328h-287v594q101 0 128.5 52.5t27.5 234.5v991h1134v-1278h123v-594z" />
    <glyph glyph-name="afii10022" unicode="&#x415;" horiz-adv-x="999" 
d="M897 0h-774v1544h774v-266h-467v-360h467v-267h-467v-385h467v-266z" />
    <glyph glyph-name="afii10024" unicode="&#x416;" horiz-adv-x="2195" 
d="M2208 0h-381l-578 760v-760h-301v760l-579 -760h-381l653 809l-625 735h357l575 -706v706h301v-706l576 706h356l-627 -735z" />
    <glyph glyph-name="afii10025" unicode="&#x417;" horiz-adv-x="1092" 
d="M1030 426q0 -220 -151 -339.5t-422 -119.5q-105 0 -212 27.5t-194 77.5v323q90 -68 186.5 -102.5t196.5 -34.5q148 0 215.5 47t67.5 154q0 94 -72 139t-223 45h-94v291h88q139 0 200.5 42.5t61.5 141.5q0 78 -60.5 123t-168.5 45q-101 0 -192.5 -34.5t-180.5 -106.5v323
q83 54 180.5 81.5t204.5 27.5q251 0 384.5 -109.5t133.5 -312.5q0 -126 -69.5 -219.5t-194.5 -132.5q151 -35 233 -134.5t82 -242.5z" />
    <glyph glyph-name="afii10026" unicode="&#x418;" horiz-adv-x="1554" 
d="M1432 0h-295v1042l-719 -1042h-295v1544h295v-1038l719 1038h295v-1544z" />
    <glyph glyph-name="afii10027" unicode="&#x419;" horiz-adv-x="1554" 
d="M1432 0h-295v1042l-719 -1042h-295v1544h295v-1038l719 1038h295v-1544zM1126 1937q-32 -129 -120 -195.5t-228 -66.5t-231 68t-117 194l160 50q17 -82 66 -127t122 -45q74 0 123.5 46t63.5 126z" />
    <glyph glyph-name="afii10028" unicode="&#x41a;" horiz-adv-x="1270" 
d="M1305 0h-365l-516 807v-807h-301v1544h301v-702l512 702h350l-549 -706z" />
    <glyph glyph-name="afii10029" unicode="&#x41b;" horiz-adv-x="1423" 
d="M1300 0h-301v1278h-532v-811q0 -292 -100.5 -396t-356.5 -104v277q101 0 128.5 52t27.5 234v1014h1134v-1544z" />
    <glyph glyph-name="afii10030" unicode="&#x41c;" horiz-adv-x="1712" 
d="M1696 0h-297l-142 1133l-313 -1133h-176l-313 1133l-142 -1133h-297l213 1544h369l258 -936l279 936h348z" />
    <glyph glyph-name="afii10031" unicode="&#x41d;" horiz-adv-x="1380" 
d="M1257 0h-301v651h-532v-651h-301v1544h301v-626h532v626h301v-1544z" />
    <glyph glyph-name="afii10032" unicode="&#x41e;" horiz-adv-x="1602" 
d="M1249 772q0 224 -124.5 366t-323.5 142q-200 0 -324.5 -142t-124.5 -366t124.5 -366t324.5 -142q199 0 323.5 142t124.5 366zM1561 772q0 -345 -218.5 -575t-541.5 -230t-541.5 230t-218.5 575t218.5 575t541.5 230t541.5 -230t218.5 -575z" />
    <glyph glyph-name="afii10033" unicode="&#x41f;" horiz-adv-x="1380" 
d="M1257 0h-301v1278h-532v-1278h-301v1544h1134v-1544z" />
    <glyph glyph-name="afii10034" unicode="&#x420;" horiz-adv-x="1081" 
d="M719 1073q0 110 -62 167.5t-182 57.5h-51v-452h51q129 0 186.5 53.5t57.5 173.5zM1030 1073q0 -216 -152 -344.5t-411 -128.5h-43v-600h-301v1544h344q273 0 418 -121.5t145 -349.5z" />
    <glyph glyph-name="afii10035" unicode="&#x421;" horiz-adv-x="1231" 
d="M1190 84q-62 -46 -182 -81.5t-217 -35.5q-348 0 -549 218.5t-201 588.5q0 352 207.5 577.5t548.5 225.5q127 0 220 -24t173 -78v-334q-79 70 -174 107.5t-191 37.5q-214 0 -342.5 -140t-128.5 -372q0 -238 117.5 -377t323.5 -139q123 0 219 41t176 127v-342z" />
    <glyph glyph-name="afii10036" unicode="&#x422;" horiz-adv-x="924" 
d="M903 1278h-291v-1278h-301v1278h-291v266h883v-266z" />
    <glyph glyph-name="afii10037" unicode="&#x423;" horiz-adv-x="1280" 
d="M1296 1544l-751 -1544h-328l322 655l-549 889h358l334 -608l287 608h327z" />
    <glyph glyph-name="afii10038" unicode="&#x424;" horiz-adv-x="1655" 
d="M676 436v694q-158 0 -246 -92.5t-88 -255.5q0 -160 89 -253t245 -93zM1311 782q0 163 -88 255.5t-246 92.5v-694q156 0 245 93t89 253zM1614 782q0 -269 -171.5 -431.5t-465.5 -168.5v-182h-301v182q-294 6 -464.5 168.5t-170.5 431.5q0 272 171.5 434t463.5 168v160h301
v-160q292 -6 464.5 -168t172.5 -434z" />
    <glyph glyph-name="afii10039" unicode="&#x425;" horiz-adv-x="1276" 
d="M1272 0h-357l-278 545l-279 -545h-354l457 809l-445 735h355l272 -502l262 502h352l-440 -735z" />
    <glyph glyph-name="afii10040" unicode="&#x426;" horiz-adv-x="1401" 
d="M1391 -328h-301v328h-967v1544h301v-1278h532v1278h301v-1278h134v-594z" />
    <glyph glyph-name="afii10041" unicode="&#x427;" horiz-adv-x="1362" 
d="M1239 0h-301v555q-54 -24 -121 -36.5t-141 -12.5q-268 0 -415.5 167.5t-147.5 465.5v405h301v-459q0 -146 68.5 -224.5t193.5 -78.5q137 0 262 58v704h301v-1544z" />
    <glyph glyph-name="afii10042" unicode="&#x428;" horiz-adv-x="2058" 
d="M1935 0h-1812v1544h301v-1278h455v1278h301v-1278h454v1278h301v-1544z" />
    <glyph glyph-name="afii10043" unicode="&#x429;" horiz-adv-x="2079" 
d="M2068 -328h-301v328h-1644v1544h301v-1278h455v1278h301v-1278h454v1278h301v-1278h133v-594z" />
    <glyph glyph-name="afii10044" unicode="&#x42a;" horiz-adv-x="1276" 
d="M913 457q0 112 -58.5 163.5t-184.5 51.5h-52v-426h52q123 0 183 52t60 159zM1225 457q0 -225 -143.5 -341t-419.5 -116h-345v1278h-307v266h608v-626h44q261 0 412 -124t151 -337z" />
    <glyph glyph-name="afii10045" unicode="&#x42b;" horiz-adv-x="1618" 
d="M719 457q0 112 -58.5 163.5t-185.5 51.5h-51v-426h51q123 0 183.5 52t60.5 159zM1030 457q0 -225 -143 -341t-420 -116h-344v1544h301v-626h43q262 0 412.5 -124t150.5 -337zM1495 0h-301v1544h301v-1544z" />
    <glyph glyph-name="afii10046" unicode="&#x42c;" horiz-adv-x="1081" 
d="M719 457q0 112 -58.5 163.5t-185.5 51.5h-51v-426h51q123 0 183.5 52t60.5 159zM1030 457q0 -225 -143 -341t-420 -116h-344v1544h301v-626h43q262 0 412.5 -124t150.5 -337z" />
    <glyph glyph-name="afii10047" unicode="&#x42d;" horiz-adv-x="1231" 
d="M1190 774q0 -370 -201 -588.5t-549 -218.5q-97 0 -217 35.5t-182 81.5v342q80 -86 176 -127t219 -41q176 0 288.5 102.5t141.5 286.5h-610v266h606q-37 175 -158 274t-298 99q-97 0 -191.5 -37.5t-173.5 -107.5v334q80 54 173 78t220 24q341 0 548.5 -225.5t207.5 -577.5
z" />
    <glyph glyph-name="afii10048" unicode="&#x42e;" horiz-adv-x="2277" 
d="M1925 772q0 224 -124.5 366t-323.5 142q-200 0 -324.5 -142t-124.5 -366t124.5 -366t324.5 -142q199 0 323.5 142t124.5 366zM2236 772q0 -345 -218 -575t-541 -230q-291 0 -501.5 191.5t-250.5 492.5h-301v-651h-301v1544h301v-626h305q46 291 254.5 475t493.5 184
q323 0 541 -230t218 -575z" />
    <glyph glyph-name="afii10049" unicode="&#x42f;" horiz-adv-x="1143" 
d="M719 881v417h-68q-137 0 -202.5 -51t-65.5 -160q0 -104 66.5 -155t201.5 -51h68zM1020 0h-301v705l-365 -705h-360l403 705q-145 15 -235 123t-90 286q0 210 135.5 320t396.5 110h416v-1544z" />
    <glyph glyph-name="afii10065" unicode="&#x430;" horiz-adv-x="1157" 
d="M768 502q0 119 -63.5 200.5t-157.5 81.5t-156.5 -81t-62.5 -201t62 -200.5t157 -80.5t158 81t63 200zM1055 0h-287v115q-44 -73 -112.5 -110.5t-157.5 -37.5q-207 0 -334 150t-127 385t127 385.5t334 150.5q95 0 166 -38.5t104 -108.5v115h287v-1006z" />
    <glyph glyph-name="afii10066" unicode="&#x431;" horiz-adv-x="1122" 
d="M795 504q0 120 -67.5 200t-166.5 80q-103 0 -168 -78.5t-65 -201.5q0 -125 65.5 -204t167.5 -79q107 0 170.5 78t63.5 205zM1085 504q0 -228 -148.5 -382.5t-373.5 -154.5q-230 0 -378 166t-148 424q0 331 102.5 525.5t333.5 293.5q180 78 240.5 145t60.5 169h234
q0 -196 -98 -320.5t-310 -202.5q-115 -41 -177.5 -92.5t-80.5 -120.5q36 36 101 60t120 24q225 0 373.5 -153.5t148.5 -380.5z" />
    <glyph glyph-name="afii10067" unicode="&#x432;" horiz-adv-x="981" 
d="M614 317q0 61 -38 88t-123 27h-43v-227h43q89 0 125 26t36 86zM578 711q0 50 -30 70t-102 20h-36v-185h30q71 0 104.5 23t33.5 72zM901 293q0 -148 -98.5 -220.5t-298.5 -72.5h-381v1006h366q184 0 274.5 -65t90.5 -198q0 -77 -40.5 -131.5t-115.5 -76.5
q96 -28 149.5 -92.5t53.5 -149.5z" />
    <glyph glyph-name="afii10068" unicode="&#x433;" horiz-adv-x="764" 
d="M754 770h-344v-770h-287v1006h631v-236z" />
    <glyph glyph-name="afii10069" unicode="&#x434;" horiz-adv-x="1239" 
d="M807 236v534h-363v-301q0 -70 -9 -131.5t-25 -101.5h397zM1229 -328h-287v328h-645v-328h-287v564q94 0 121 49t27 217v504h936v-770h135v-564z" />
    <glyph glyph-name="afii10070" unicode="&#x435;" horiz-adv-x="1026" 
d="M717 592q-19 99 -73.5 156t-131.5 57t-132 -58t-73 -155h410zM1001 504q0 -37 -0.5 -55t-3.5 -33h-690q21 -96 82 -155.5t139 -59.5q67 0 121.5 34t81.5 93l230 -115q-60 -119 -173 -182.5t-268 -63.5q-224 0 -359.5 147.5t-135.5 389.5q0 226 141 380t348 154
q215 0 351 -151t136 -383z" />
    <glyph glyph-name="afii10072" unicode="&#x436;" horiz-adv-x="1663" 
d="M1655 0h-352l-328 532v-532h-287v532l-328 -532h-352l367 559l-346 447h342l317 -447v447h287v-447l317 447h342l-346 -447z" />
    <glyph glyph-name="afii10073" unicode="&#x437;" horiz-adv-x="801" 
d="M750 262q0 -133 -109.5 -214t-296.5 -81q-79 0 -140.5 17t-131.5 57v242q47 -40 105 -61t120 -21q74 0 118 34.5t44 96.5q0 65 -45.5 100t-130.5 35v129q93 0 134.5 25t41.5 79q0 51 -40.5 78t-115.5 27q-63 0 -124 -23t-107 -65v254q57 33 126 50t144 17
q201 0 304.5 -69t103.5 -203q0 -94 -48.5 -153.5t-142.5 -82.5q91 -28 141 -99t50 -169z" />
    <glyph glyph-name="afii10074" unicode="&#x438;" horiz-adv-x="1178" 
d="M1075 0h-287v547l-426 -547h-260v1006h287v-545l426 545h260v-1006z" />
    <glyph glyph-name="afii10075" unicode="&#x439;" horiz-adv-x="1178" 
d="M1075 0h-287v547l-426 -547h-260v1006h287v-545l426 545h260v-1006zM938 1405q-31 -126 -121.5 -194t-226.5 -68q-131 0 -227.5 72.5t-120.5 189.5l159 49q18 -82 67 -127t122 -45q74 0 123 46.5t63 125.5z" />
    <glyph glyph-name="afii10076" unicode="&#x43a;" horiz-adv-x="1077" 
d="M1069 0h-352l-328 532v-532h-287v1006h287v-447l318 447h342l-347 -447z" />
    <glyph glyph-name="afii10077" unicode="&#x43b;" horiz-adv-x="1135" 
d="M1032 0h-287v770h-325v-317q0 -305 -84.5 -395.5t-325.5 -90.5v248q82 0 102.5 35.5t20.5 234.5v521h899v-1006z" />
    <glyph glyph-name="afii10078" unicode="&#x43c;" horiz-adv-x="1462" 
d="M1417 0h-293l-104 547l-156 -547h-266l-156 547l-104 -547h-293l184 1006h314l188 -615l189 615h313z" />
    <glyph glyph-name="afii10079" unicode="&#x43d;" horiz-adv-x="1104" 
d="M1001 0h-286v422h-326v-422h-287v1006h287v-349h326v349h286v-1006z" />
    <glyph glyph-name="afii10080" unicode="&#x43e;" horiz-adv-x="1122" 
d="M795 504q0 120 -67.5 200t-166.5 80q-103 0 -168 -78.5t-65 -201.5q0 -125 65.5 -204t167.5 -79q107 0 170.5 78t63.5 205zM1085 504q0 -228 -148.5 -382.5t-373.5 -154.5q-226 0 -376 154t-150 383q0 231 149 382.5t377 151.5q225 0 373.5 -153.5t148.5 -380.5z" />
    <glyph glyph-name="afii10081" unicode="&#x43f;" horiz-adv-x="1104" 
d="M1001 0h-286v770h-326v-770h-287v1006h899v-1006z" />
    <glyph glyph-name="afii10082" unicode="&#x440;" horiz-adv-x="1157" 
d="M834 504q0 118 -64 199t-160 81q-95 0 -158 -80.5t-63 -199.5q0 -120 63.5 -201.5t157.5 -81.5q95 0 159.5 82t64.5 201zM1120 504q0 -235 -127 -386t-334 -151q-95 0 -166 39t-104 109v-647h-287v1538h287v-115q44 72 112.5 109.5t157.5 37.5q207 0 334 -149.5
t127 -384.5z" />
    <glyph glyph-name="afii10083" unicode="&#x441;" horiz-adv-x="948" 
d="M881 39q-67 -38 -132 -55t-145 -17q-247 0 -395 146t-148 389q0 238 151 388t400 150q75 0 141 -16t124 -49v-277q-45 42 -106 65t-124 23q-135 0 -215 -77t-80 -207q0 -131 80 -207t219 -76q60 0 121.5 24t108.5 66v-270z" />
    <glyph glyph-name="afii10084" unicode="&#x442;" horiz-adv-x="745" 
d="M731 770h-215v-770h-287v770h-215v236h717v-236z" />
    <glyph glyph-name="afii10085" unicode="&#x443;" horiz-adv-x="1065" 
d="M1065 1006l-563 -1538h-318l211 557l-381 981h318l209 -648l207 648h317z" />
    <glyph glyph-name="afii10086" unicode="&#x444;" horiz-adv-x="1483" 
d="M598 246v514q-131 0 -195.5 -63.5t-64.5 -192.5q0 -135 62 -196.5t198 -61.5zM1145 504q0 129 -64.5 192.5t-195.5 63.5v-514q136 0 198 61.5t62 196.5zM1432 504q0 -235 -138 -361.5t-409 -142.5v-532h-287v532q-272 16 -409.5 142.5t-137.5 361.5q0 227 149 364.5
t398 137.5v684h287v-684q248 0 397.5 -137.5t149.5 -364.5z" />
    <glyph glyph-name="afii10087" unicode="&#x445;" horiz-adv-x="1124" 
d="M1133 0h-359l-217 311l-213 -311h-352l393 518l-367 488h353l198 -295l187 295h352l-371 -488z" />
    <glyph glyph-name="afii10088" unicode="&#x446;" horiz-adv-x="1141" 
d="M1130 -328h-286v328h-742v1006h287v-770h326v770h286v-773h129v-561z" />
    <glyph glyph-name="afii10089" unicode="&#x447;" horiz-adv-x="1100" 
d="M997 0h-286v391q-58 -38 -124 -57t-141 -19q-194 0 -274 106t-80 363v222h287v-193q0 -145 32.5 -201.5t116.5 -56.5q53 0 97.5 12t85.5 37v402h286v-1006z" />
    <glyph glyph-name="afii10090" unicode="&#x448;" horiz-adv-x="1649" 
d="M1546 0h-1444v1006h287v-773h293v773h285v-773h293v773h286v-1006z" />
    <glyph glyph-name="afii10091" unicode="&#x449;" horiz-adv-x="1837" 
d="M1812 -328h-282v328h-1399v1008h283v-775h352v775h283v-775h354v775h283v-775h126v-561z" />
    <glyph glyph-name="afii10092" unicode="&#x44a;" horiz-adv-x="1061" 
d="M733 350q0 66 -41.5 98.5t-126.5 32.5h-53v-264h53q84 0 126 33.5t42 99.5zM1020 350q0 -170 -113 -260t-323 -90h-359v770h-215v236h502v-308h74q211 0 322.5 -89t111.5 -259z" />
    <glyph glyph-name="afii10093" unicode="&#x44b;" horiz-adv-x="1430" 
d="M610 350q0 66 -41.5 98.5t-126.5 32.5h-53v-264h53q84 0 126 33.5t42 99.5zM897 350q0 -170 -112.5 -260t-323.5 -90h-359v1006h287v-308h74q211 0 322.5 -89t111.5 -259zM1327 0h-287v1006h287v-1006z" />
    <glyph glyph-name="afii10094" unicode="&#x44c;" horiz-adv-x="938" 
d="M610 350q0 66 -41.5 98.5t-126.5 32.5h-53v-264h53q84 0 126 33.5t42 99.5zM897 350q0 -170 -112.5 -260t-323.5 -90h-359v1006h287v-308h74q211 0 322.5 -89t111.5 -259z" />
    <glyph glyph-name="afii10095" unicode="&#x44d;" horiz-adv-x="862" 
d="M825 502q0 -243 -150.5 -389t-402.5 -146q-71 0 -125.5 14.5t-115.5 51.5v286q40 -46 99.5 -72t123.5 -26q103 0 174 50.5t94 140.5h-366v194h360q-31 83 -100.5 130.5t-161.5 47.5q-60 0 -121.5 -26t-101.5 -68v287q59 33 114 47t127 14q250 0 401.5 -148.5
t151.5 -387.5z" />
    <glyph glyph-name="afii10096" unicode="&#x44e;" horiz-adv-x="1675" 
d="M1348 504q0 120 -67.5 200t-166.5 80q-103 0 -168 -78.5t-65 -201.5q0 -125 65.5 -204t167.5 -79q107 0 170.5 78t63.5 205zM1638 504q0 -228 -148.5 -382.5t-373.5 -154.5q-202 0 -346.5 127.5t-173.5 327.5h-207v-422h-287v1006h287v-349h221q46 174 183 277.5
t323 103.5q225 0 373.5 -153.5t148.5 -380.5z" />
    <glyph glyph-name="afii10097" unicode="&#x44f;" horiz-adv-x="952" 
d="M563 559v242h-41q-86 0 -125 -28.5t-39 -92.5q0 -63 40.5 -92t125.5 -29h39zM850 0h-287v406l-233 -406h-330l303 424q-108 20 -169.5 92.5t-61.5 179.5q0 157 108 233.5t330 76.5h340v-1006z" />
    <glyph glyph-name="afii10071" unicode="&#x451;" horiz-adv-x="1026" 
d="M717 592q-19 99 -73.5 156t-131.5 57t-132 -58t-73 -155h410zM1001 504q0 -37 -0.5 -55t-3.5 -33h-690q21 -96 82 -155.5t139 -59.5q67 0 121.5 34t81.5 93l230 -115q-60 -119 -173 -182.5t-268 -63.5q-224 0 -359.5 147.5t-135.5 389.5q0 226 141 380t348 154
q215 0 351 -151t136 -383zM457 1278q0 -57 -37 -94t-92 -37q-56 0 -93.5 38t-37.5 93q0 51 39.5 90t91.5 39q53 0 91 -37.5t38 -91.5zM831 1278q0 -57 -36.5 -94t-92.5 -37q-55 0 -93 38t-38 93q0 51 40 90t91 39q54 0 91.5 -37.5t37.5 -91.5z" />
    <glyph glyph-name="afii10099" unicode="&#x452;" horiz-adv-x="1106" 
d="M1008 -51q0 -291 -104 -396.5t-365 -105.5v248q110 0 146 60t36 225v612q0 115 -33.5 166t-109.5 51q-83 0 -136 -78t-53 -215v-516h-287v1239h-112v188h112v263h287v-263h309v-188h-309v-350q41 73 119.5 111t185.5 38q160 0 237 -96t77 -293v-700z" />
    <glyph glyph-name="afii10100" unicode="&#x453;" horiz-adv-x="764" 
d="M754 770h-344v-770h-287v1006h631v-236zM662 1313l-387 -203l-74 117l346 262z" />
    <glyph glyph-name="afii10101" unicode="&#x454;" horiz-adv-x="862" 
d="M831 33q-61 -37 -115 -51.5t-126 -14.5q-252 0 -402.5 146t-150.5 389q0 239 151.5 387.5t401.5 148.5q73 0 127.5 -14t113.5 -47v-287q-39 42 -101 68t-122 26q-92 0 -161.5 -47.5t-100.5 -130.5h361v-194h-367q24 -90 94.5 -140.5t173.5 -50.5q64 0 123.5 26t99.5 72
v-286z" />
    <glyph glyph-name="afii10102" unicode="&#x455;" horiz-adv-x="840" 
d="M793 285q0 -148 -107.5 -233t-296.5 -85q-147 0 -243 54t-134 157l219 117q14 -56 55.5 -89.5t102.5 -33.5q60 0 94.5 25t34.5 67q0 49 -41.5 79t-148.5 71q-152 57 -219.5 131t-67.5 184q0 145 102 227t285 82q128 0 217.5 -51.5t134.5 -150.5l-209 -105q-20 51 -56 77
t-87 26q-57 0 -89 -23t-32 -61q0 -53 48 -86t161 -70q137 -45 207 -123t70 -186z" />
    <glyph glyph-name="afii10103" unicode="&#x456;" horiz-adv-x="518" 
d="M403 0h-286v1006h286v-1006zM426 1411q0 -69 -48.5 -117.5t-117.5 -48.5t-117.5 48.5t-48.5 117.5t48.5 117.5t117.5 48.5t117.5 -48.5t48.5 -117.5z" />
    <glyph glyph-name="afii10104" unicode="&#x457;" horiz-adv-x="571" 
d="M426 0h-281v1008h281v-1008zM227 1290q0 -57 -38 -95t-95 -38q-55 0 -95 39t-40 94q0 54 40.5 93.5t94.5 39.5q56 0 94.5 -38.5t38.5 -94.5zM612 1290q0 -57 -38 -95t-95 -38q-55 0 -95 39t-40 94q0 54 40.5 93.5t94.5 39.5q56 0 94.5 -38.5t38.5 -94.5z" />
    <glyph glyph-name="afii10105" unicode="&#x458;" horiz-adv-x="518" 
d="M403 -532h-286v1538h286v-1538zM426 1411q0 -69 -48.5 -117.5t-117.5 -48.5t-117.5 48.5t-48.5 117.5t48.5 117.5t117.5 48.5t117.5 -48.5t48.5 -117.5z" />
    <glyph glyph-name="afii10106" unicode="&#x459;" horiz-adv-x="1491" 
d="M1163 350q0 66 -41.5 98.5t-126.5 32.5h-53v-264h53q84 0 126 33.5t42 99.5zM1450 350q0 -170 -112.5 -260t-323.5 -90h-359v422h-266v-422h-287v1006h287v-349h266v349h287v-308h74q211 0 322.5 -89t111.5 -259z" />
    <glyph glyph-name="afii10107" unicode="&#x45a;" horiz-adv-x="1511" 
d="M1184 350q0 66 -42 98.5t-126 32.5h-53v-264h53q83 0 125.5 33.5t42.5 99.5zM1470 350q0 -170 -112.5 -260t-323.5 -90h-358v770h-256v-317q0 -305 -84.5 -395.5t-325.5 -90.5v248q82 0 102.5 35.5t20.5 234.5v521h830v-308h73q211 0 322.5 -89t111.5 -259z" />
    <glyph glyph-name="afii10108" unicode="&#x45b;" horiz-adv-x="1106" 
d="M1008 0h-287v592q0 115 -33.5 166t-109.5 51q-83 0 -136 -78t-53 -215v-516h-287v1239h-112v188h112v263h287v-263h309v-188h-309v-350q41 73 119.5 111t185.5 38q160 0 237 -96t77 -293v-649z" />
    <glyph glyph-name="afii10109" unicode="&#x45c;" horiz-adv-x="1077" 
d="M1069 0h-352l-328 532v-532h-287v1006h287v-447l318 447h342l-347 -447zM818 1313l-387 -203l-74 117l346 262z" />
    <glyph glyph-name="afii10110" unicode="&#x45e;" horiz-adv-x="1065" 
d="M1065 1006l-563 -1538h-318l211 557l-381 981h318l209 -648l207 648h317zM883 1405q-33 -130 -121 -196t-228 -66t-231 68t-117 194l160 49q17 -82 66 -127t122 -45q74 0 123.5 46.5t63.5 125.5z" />
    <glyph glyph-name="afii10193" unicode="&#x45f;" horiz-adv-x="1104" 
d="M1001 0h-305v-328h-286v328h-308v1006h287v-770h326v770h286v-1006z" />
    <glyph glyph-name="afii10050" unicode="&#x490;" horiz-adv-x="823" 
d="M803 1278h-379v-1278h-301v1544h379v246h301v-512z" />
    <glyph glyph-name="afii10098" unicode="&#x491;" horiz-adv-x="764" 
d="M754 770h-344v-770h-287v1006h344v327h287v-563z" />
    <glyph glyph-name="Wdieresis" unicode="&#x1e84;" horiz-adv-x="2001" 
d="M2011 1544l-440 -1544h-297l-273 1110l-274 -1110h-297l-440 1544h327l267 -1065l274 1065h285l274 -1065l266 1065h328zM944 1817q0 -57 -36.5 -94t-92.5 -37q-55 0 -93 38t-38 93q0 51 39.5 90t91.5 39q54 0 91.5 -37.5t37.5 -91.5zM1319 1817q0 -57 -36.5 -94
t-92.5 -37q-55 0 -93 38t-38 93q0 51 39.5 90t91.5 39q54 0 91.5 -37.5t37.5 -91.5z" />
    <glyph glyph-name="wdieresis" unicode="&#x1e85;" horiz-adv-x="1604" 
d="M1614 1006l-357 -1006h-284l-170 602l-170 -602h-285l-358 1006h317l182 -652l170 652h285l170 -652l182 652h318zM745 1278q0 -57 -36.5 -94t-92.5 -37q-55 0 -93 38t-38 93q0 51 39.5 90t91.5 39q54 0 91.5 -37.5t37.5 -91.5zM1120 1278q0 -57 -36.5 -94t-92.5 -37
q-55 0 -93 38t-38 93q0 51 39.5 90t91.5 39q54 0 91.5 -37.5t37.5 -91.5z" />
    <glyph glyph-name="Ygrave" unicode="&#x1ef2;" horiz-adv-x="1202" 
d="M1212 1544l-460 -860v-684h-301v684l-461 860h344l272 -583l264 583h342zM784 1766l-73 -117l-387 203l114 176z" />
    <glyph glyph-name="ygrave" unicode="&#x1ef3;" horiz-adv-x="1065" 
d="M1065 1006l-563 -1538h-318l211 557l-381 981h318l209 -648l207 648h317zM729 1227l-73 -117l-387 203l114 176z" />
    <glyph glyph-name="enspace" unicode="&#x2002;" horiz-adv-x="1024" 
 />
    <glyph glyph-name="emspace" unicode="&#x2003;" horiz-adv-x="2048" 
 />
    <glyph glyph-name="thinspace" unicode="&#x2009;" horiz-adv-x="592" 
 />
    <glyph glyph-name="endash" unicode="&#x2013;" horiz-adv-x="1024" 
d="M1024 414h-1024v204h1024v-204z" />
    <glyph glyph-name="emdash" unicode="&#x2014;" horiz-adv-x="2048" 
d="M1843 414h-1638v204h1638v-204z" />
    <glyph glyph-name="longdash" unicode="&#x2015;" horiz-adv-x="2048" 
d="M1843 414h-1638v204h1638v-204z" />
    <glyph glyph-name="quoteleft" unicode="&#x2018;" horiz-adv-x="606" 
d="M549 1544l-172 -635h-307l288 635h191z" />
    <glyph glyph-name="quoteright" unicode="&#x2019;" horiz-adv-x="606" 
d="M537 1544l-289 -635h-191l172 635h308z" />
    <glyph glyph-name="quotesinglbase" unicode="&#x201a;" horiz-adv-x="606" 
d="M496 297l-289 -635h-191l172 635h308z" />
    <glyph glyph-name="quotedblleft" unicode="&#x201c;" horiz-adv-x="999" 
d="M528 1544l-172 -635h-307l289 635h190zM963 1544l-172 -635h-308l289 635h191z" />
    <glyph glyph-name="quotedblright" unicode="&#x201d;" horiz-adv-x="999" 
d="M516 1544l-289 -635h-190l172 635h307zM950 1544l-288 -635h-191l172 635h307z" />
    <glyph glyph-name="quotedblbase" unicode="&#x201e;" horiz-adv-x="999" 
d="M475 297l-289 -635h-190l172 635h307zM909 297l-288 -635h-191l172 635h307z" />
    <glyph glyph-name="dagger" unicode="&#x2020;" horiz-adv-x="1182" 
d="M1110 743h-381v-1173h-283v1173h-380v263h380v538h283v-538h381v-263z" />
    <glyph glyph-name="daggerdbl" unicode="&#x2021;" horiz-adv-x="1182" 
d="M1110 53h-379v-483h-287v483h-378v254h378v547h-378v254h378v436h287v-436h379v-254h-379v-547h379v-254z" />
    <glyph glyph-name="bullet" unicode="&#x2022;" horiz-adv-x="1182" 
d="M897 807q0 -127 -89 -216t-216 -89t-216 89t-89 216t88.5 216t216.5 89q126 0 215.5 -89t89.5 -216z" />
    <glyph glyph-name="ellipsis" unicode="&#x2026;" horiz-adv-x="2048" 
d="M514 137q0 -71 -50 -120.5t-122 -49.5q-71 0 -121.5 50t-50.5 120q0 72 50.5 122t121.5 50t121.5 -50t50.5 -122zM1196 137q0 -71 -50 -120.5t-122 -49.5q-71 0 -121.5 50t-50.5 120q0 72 50.5 122t121.5 50t121.5 -50t50.5 -122zM1878 137q0 -71 -50 -120.5t-122 -49.5
q-71 0 -121.5 50t-50.5 120q0 72 50.5 122t121.5 50t121.5 -50t50.5 -122z" />
    <glyph glyph-name="perthousand" unicode="&#x2030;" horiz-adv-x="2458" 
d="M2159 332q0 75 -45.5 126.5t-112.5 51.5q-68 0 -115 -52t-47 -126q0 -75 47 -127.5t115 -52.5q67 0 112.5 52t45.5 128zM2355 332q0 -150 -105 -257.5t-251 -107.5q-147 0 -252 107.5t-105 257.5t105 256t252 106t251.5 -106t104.5 -256zM1323 332q0 75 -45 126.5
t-113 51.5t-114.5 -52t-46.5 -126q0 -75 46.5 -127.5t114.5 -52.5t113 52t45 128zM578 1214q0 76 -45.5 127.5t-112.5 51.5q-68 0 -115 -52t-47 -127t47 -127.5t115 -52.5q67 0 112.5 52.5t45.5 127.5zM1520 332q0 -150 -105 -257.5t-252 -107.5q-146 0 -251 107.5
t-105 257.5t105 256t251 106q147 0 252 -106t105 -256zM1341 1544l-950 -1544h-149l950 1544h149zM774 1214q0 -149 -105 -256.5t-251 -107.5q-147 0 -252 107.5t-105 256.5q0 150 105 256.5t252 106.5q146 0 251 -106.5t105 -256.5z" />
    <glyph glyph-name="guilsinglleft" unicode="&#x2039;" horiz-adv-x="643" 
d="M571 109l-178 -109l-299 504l299 502l178 -109l-243 -393z" />
    <glyph glyph-name="guilsinglright" unicode="&#x203a;" horiz-adv-x="643" 
d="M549 504l-299 -504l-178 109l243 395l-243 393l178 109z" />
    <glyph glyph-name="fraction" unicode="&#x2044;" horiz-adv-x="367" 
d="M733 1544l-950 -1544h-150l951 1544h149z" />
    <glyph glyph-name="franc" unicode="&#x20a3;" horiz-adv-x="1700" 
d="M887 651h-453v-651h-301v1544h754v-266h-453v-360h453v-267zM1720 1022l-51 -297q-27 14 -50.5 20.5t-49.5 6.5q-118 0 -175 -77.5t-57 -238.5v-436h-287v1006h287v-211q40 135 104.5 189t190.5 54q21 0 46 -4.5t42 -11.5z" />
    <glyph glyph-name="afii61352" unicode="&#x2116;" horiz-adv-x="2429" 
d="M2138 651q0 86 -46 138.5t-122 52.5q-77 0 -121.5 -52.5t-44.5 -138.5q0 -88 44.5 -139t121.5 -51t122.5 51.5t45.5 138.5zM1432 0h-295l-719 1042v-1042h-295v1544h295l719 -1038v1038h295v-1544zM2331 0h-719v176h719v-176zM2367 653q0 -169 -111.5 -279t-285.5 -110
t-284.5 109.5t-110.5 279.5q0 166 111.5 275.5t283.5 109.5q175 0 286 -107t111 -278z" />
    <glyph glyph-name="trademark" unicode="&#x2122;" horiz-adv-x="2048" 
d="M782 1350h-258v-656h-225v656h-258v194h741v-194zM1882 694h-215v580l-235 -580h-95l-239 580v-580h-215v850h309l192 -461l189 461h309v-850z" />
    <glyph glyph-name="Omega" unicode="&#x2126;" horiz-adv-x="1575" 
d="M1227 256h291v-256h-609v291q126 86 192 217.5t66 296.5q0 203 -101.5 319.5t-279.5 116.5q-177 0 -278.5 -116.5t-101.5 -319.5q0 -164 66 -296.5t192 -217.5v-291h-609v256h291q-126 121 -187 260t-61 303q0 313 188 501.5t500 188.5q313 0 501 -188.5t188 -501.5
q0 -164 -61 -303t-187 -260z" />
    <glyph glyph-name="partialdiff" unicode="&#x2202;" horiz-adv-x="1094" 
d="M762 662q19 99 29 188.5t10 155.5q0 100 -26 157.5t-70 57.5t-146 -73t-160 -73q-42 0 -71 30t-29 73q0 64 86.5 118t210.5 54q192 0 309 -161.5t117 -432.5q0 -339 -156.5 -560t-396.5 -221q-171 0 -282 114.5t-111 291.5q0 198 116 329.5t287 131.5q102 0 170 -43.5
t113 -136.5zM700 518q0 116 -38.5 178t-110.5 62q-101 0 -167.5 -134t-66.5 -341q0 -117 38.5 -177.5t111.5 -60.5q101 0 167 133.5t66 339.5z" />
    <glyph glyph-name="Delta" unicode="&#x2206;" horiz-adv-x="1427" 
d="M713 1110l-326 -854h653zM563 1473h301l563 -1473h-1427z" />
    <glyph glyph-name="product" unicode="&#x220f;" horiz-adv-x="1612" 
d="M150 1473h1308v-1866h-344v1577h-620v-1577h-344v1866z" />
    <glyph glyph-name="summation" unicode="&#x2211;" horiz-adv-x="1470" 
d="M66 1473h1308v-265h-878l620 -645l-622 -690h933v-266h-1386v172l698 772l-673 690v232z" />
    <glyph glyph-name="minus" unicode="&#x2212;" 
d="M1130 461h-1075v205h1075v-205z" />
    <glyph glyph-name="U2215" unicode="&#x2215;" horiz-adv-x="367" 
d="M733 1544l-950 -1544h-150l951 1544h149z" />
    <glyph glyph-name="periodcenter" unicode="&#x2219;" horiz-adv-x="592" 
d="M471 793q0 -71 -50 -120.5t-122 -49.5q-71 0 -121.5 50t-50.5 120q0 71 50.5 121.5t121.5 50.5t121.5 -50.5t50.5 -121.5z" />
    <glyph glyph-name="radical" unicode="&#x221a;" horiz-adv-x="1346" 
d="M1141 1694h207v-129h-103l-592 -1606h-100l-311 858l-140 -51l-30 113l331 116l236 -661z" />
    <glyph glyph-name="infinity" unicode="&#x221e;" horiz-adv-x="1706" 
d="M942 561q45 -75 106.5 -113t139.5 -38q94 0 152.5 55.5t58.5 144.5q0 87 -54 143t-135 56q-75 0 -138 -57.5t-130 -190.5zM766 659q-44 75 -105.5 112.5t-140.5 37.5q-94 0 -152.5 -56t-58.5 -145q0 -85 54 -141.5t135 -56.5q75 0 138 58t130 191zM858 457
q-68 -132 -146.5 -195t-174.5 -63q-140 0 -236 117.5t-96 293.5q0 184 85.5 297t223.5 113q92 0 170 -60t164 -198q68 132 148 196t175 64q139 0 235.5 -118.5t96.5 -293.5q0 -183 -86 -296t-223 -113q-93 0 -170.5 58.5t-165.5 197.5z" />
    <glyph glyph-name="integral" unicode="&#x222b;" horiz-adv-x="1186" 
d="M342 -252q102 0 121 639q3 136 6 211q16 508 123 732t328 224q98 0 157.5 -49t59.5 -129q0 -60 -38 -96.5t-100 -36.5q-46 0 -77 24t-41 68q-5 20 -7 54q-3 46 -30 47q-99 0 -119 -633q-4 -116 -6 -178q-11 -296 -31 -444.5t-59 -250.5q-56 -148 -148.5 -225.5
t-214.5 -77.5q-96 0 -156.5 49t-60.5 127q0 62 39 99t105 37q50 0 85 -31.5t35 -71.5q0 -58 6 -73t23 -15z" />
    <glyph glyph-name="approxequal" unicode="&#x2248;" horiz-adv-x="1706" 
d="M1530 596v-219q-106 -72 -198 -105.5t-181 -33.5q-95 0 -286.5 66.5t-301.5 66.5q-84 0 -174.5 -37t-210.5 -121v219q111 73 206.5 108t180.5 35q124 0 315.5 -65.5t274.5 -65.5q86 0 174 35.5t201 116.5zM1530 1008v-220q-106 -71 -196.5 -104t-180.5 -33
q-94 0 -286 65.5t-304 65.5q-82 0 -170 -35t-215 -122v219q107 71 204 107t183 36q125 0 316.5 -65.5t273.5 -65.5q84 0 171 35t204 117z" />
    <glyph glyph-name="notequal" unicode="&#x2260;" horiz-adv-x="1706" 
d="M1198 1233l148 -119l-154 -192h260v-191h-389l-191 -239h580v-193h-707l-245 -309l-148 119l154 190h-252v193h377l190 239h-567v191h696z" />
    <glyph glyph-name="lessequal" unicode="&#x2264;" horiz-adv-x="1706" 
d="M258 195h1192v-197h-1192v197zM1448 1241v-209l-834 -264l834 -262v-209l-1190 385v174z" />
    <glyph glyph-name="greaterequal" unicode="&#x2265;" horiz-adv-x="1706" 
d="M258 195h1192v-197h-1192v197zM260 1241l1188 -385v-174l-1188 -385v209l832 262l-832 264v209z" />
    <glyph glyph-name="lozenge" unicode="&#x25ca;" horiz-adv-x="1012" 
d="M506 1409l-385 -817l385 -825l385 825zM506 1653l500 -1061l-500 -1069l-500 1069z" />
    <glyph glyph-name="commaaccent" unicode="&#xf004;" horiz-adv-x="778" 
d="M584 -168l-295 -324l-109 84l236 365z" />
    <glyph glyph-name="fi" unicode="&#xfb01;" horiz-adv-x="1114" 
d="M621 770h-183v-770h-286v770h-127v236h127v301q0 205 90 307t272 102q24 0 53.5 -3t53.5 -9v-252q-15 6 -28.5 8t-35.5 2q-64 0 -91.5 -41.5t-27.5 -134.5v-280h183v-236zM999 0h-286v1006h286v-1006zM1022 1411q0 -69 -48.5 -117.5t-117.5 -48.5t-117.5 48.5
t-48.5 117.5t48.5 117.5t117.5 48.5t117.5 -48.5t48.5 -117.5z" />
    <glyph glyph-name="fl" unicode="&#xfb02;" horiz-adv-x="1112" 
d="M621 770h-183v-770h-286v770h-127v236h127v301q0 205 90 307t272 102q24 0 53.5 -3t53.5 -9v-252q-15 6 -28.5 8t-35.5 2q-64 0 -91.5 -41.5t-27.5 -134.5v-280h183v-236zM1012 0h-287v1690h287v-1690z" />
    <glyph glyph-name="pi" horiz-adv-x="1319" 
d="M1354 1092l-39 -224h-176l-154 -868h-287l152 868h-238l-151 -868h-287l152 868h-25q-55 0 -84 -31t-39 -99l-213 -1q29 199 123 277t311 78h955z" />
    <glyph glyph-name="c640" horiz-adv-x="518" 
d="M403 0h-286v1006h286v-1006zM397 1278q0 -58 -39 -96.5t-98 -38.5q-55 0 -95 40t-40 95q0 53 41.5 95t93.5 42q55 0 96 -41t41 -96z" />
    <glyph glyph-name="c8074" horiz-adv-x="606" 
d="M537 1544l-289 -635h-191l172 635h308z" />
    <glyph glyph-name="c6465" horiz-adv-x="819" 
d="M352 1278q0 -57 -36.5 -94t-92.5 -37q-55 0 -93 38t-38 93q0 52 39.5 90.5t91.5 38.5q54 0 91.5 -37.5t37.5 -91.5zM727 1278q0 -57 -36.5 -94t-92.5 -37q-55 0 -93 38t-38 93q0 52 39 90.5t92 38.5q54 0 91.5 -37.5t37.5 -91.5z" />
    <glyph glyph-name="c6466" horiz-adv-x="1055" 
d="M877 1405q-33 -130 -121 -196t-228 -66t-231 68t-117 194l160 49q17 -82 66 -127t122 -45q74 0 123.5 46.5t63.5 125.5z" />
    </font>
</defs>
</svg>
