<?xml version="1.0" standalone="no"?>
<!DOCTYPE svg PUBLIC "-//W3C//DTD SVG 1.1//EN" "http://www.w3.org/Graphics/SVG/1.1/DTD/svg11.dtd" >
<svg>
<metadata>
Created by FontForge 20110222 at Tue May  6 23:36:26 2014
 By Orthosie Webhosting
Copyright (c) 1987, 1991, 1993 Adobe Systems Incorporated.  All Rights Reserved.Futura is a registered trademark of Fundicion Tipografica Neufville S. A.
</metadata>
<defs>
<font id="FuturaLightLight" horiz-adv-x="620" >
  <font-face 
    font-family="FuturaLightLight"
    font-weight="300"
    font-stretch="normal"
    units-per-em="1000"
    panose-1="2 11 4 0 0 0 0 0 0 0"
    ascent="800"
    descent="-200"
    x-height="462"
    cap-height="754"
    bbox="-121 -302 1127 971"
    underline-thickness="50"
    underline-position="-50"
    unicode-range="U+0020-2122"
  />
<missing-glyph horiz-adv-x="502" 
d="M-1 0h500v500h-500v-500zM9 10v480h480v-480h-480z" />
    <glyph glyph-name=".notdef" horiz-adv-x="502" 
d="M-1 0h500v500h-500v-500zM9 10v480h480v-480h-480z" />
    <glyph glyph-name=".null" horiz-adv-x="0" 
 />
    <glyph glyph-name="nonmarkingreturn" horiz-adv-x="333" 
 />
    <glyph glyph-name="space" unicode=" " horiz-adv-x="310" 
 />
    <glyph glyph-name="exclam" unicode="!" horiz-adv-x="320" 
d="M160 72q-17 0 -29 -12t-12 -29t12 -29t29 -12t29 12t12 29t-12 29t-29 12zM136 143h48v611h-48v-611z" />
    <glyph glyph-name="quotedbl" unicode="&#x22;" horiz-adv-x="278" 
d="M58 754l10 -240h27l11 240h-48zM172 754l10 -240h27l11 240h-48z" />
    <glyph glyph-name="numbersign" unicode="#" 
d="M536 276h-118l26 162h118v48h-110l33 212h-50l-32 -212h-136l32 212h-50l-32 -212h-130v-48h123l-23 -162h-128v-48h121l-33 -228h48l33 228h135l-36 -228h46l37 228h126v48zM395 438l-24 -162h-136l24 162h136z" />
    <glyph glyph-name="dollar" unicode="$" 
d="M347 362l1 -1q31 -14 53.5 -26.5t42.5 -29.5t32.5 -39.5t12.5 -51.5q0 -62 -40.5 -110.5t-101.5 -63.5v322zM302 437l-10 5q-29 15 -47 25.5t-34.5 26t-26.5 35.5t-10 46q0 27 9.5 52t27 45.5t41 32t50.5 11.5v-279zM302 38q-63 0 -109 37.5t-69 96.5l-41 -19
q27 -75 84 -118t135 -45v-111h45v113q38 7 72.5 27t61 49.5t41.5 66t15 75.5q0 40 -13 69.5t-35 51t-47 36t-69 36.5l-26 13v300q36 -4 65.5 -28.5t50.5 -59.5l37 30q-23 42 -64 70t-89 34v107h-45v-105q-79 -6 -127.5 -58.5t-48.5 -132.5q0 -36 13.5 -64t36 -48.5t48 -35.5
t64.5 -34l14 -7v-346z" />
    <glyph glyph-name="percent" unicode="%" horiz-adv-x="664" 
d="M180 761q-64 0 -108 -42t-44 -107q0 -63 44 -105t108 -42t108 42t44 105q0 65 -44 107t-108 42zM180 719q45 0 77.5 -31t32.5 -76q0 -43 -32.5 -74t-77.5 -31q-44 0 -77 31t-33 74q0 45 32.5 76t77.5 31zM538 771l-446 -770l31 -18l448 771zM484 289q-64 0 -108 -42
t-44 -107q0 -63 44 -105t108 -42t108 42t44 105q0 65 -44 107t-108 42zM484 247q45 0 77.5 -31t32.5 -76q0 -43 -32.5 -74t-77.5 -31q-44 0 -77 31t-33 74q0 45 32.5 76t77.5 31z" />
    <glyph glyph-name="ampersand" unicode="&#x26;" horiz-adv-x="642" 
d="M316 723q39 0 65.5 -27.5t26.5 -66.5q0 -41 -23 -68t-68 -60q-19 -13 -30 -22q-6 10 -22 33q-22 33 -33.5 56t-11.5 50q0 41 28 73t68 32zM592 0h52l-115 153l105 120l-37 20l-96 -105l-186 254q70 48 105.5 88t35.5 98t-39.5 99t-97.5 41q-29 0 -55.5 -11t-47.5 -31.5
t-32.5 -47t-11.5 -55.5q0 -38 17 -70.5t49 -76.5l13 -18l-6 -4q-52 -32 -86.5 -56.5t-66 -56.5t-51 -71.5t-19.5 -85.5q0 -40 15 -76.5t42 -64t63.5 -43t76.5 -15.5q66 0 134 37.5t144 102.5zM279 420l190 -257q-34 -28 -61.5 -49.5t-59.5 -40.5t-64.5 -31t-64.5 -12
q-64 0 -106.5 47t-42.5 112q0 34 14 63t37.5 53t48.5 42t61 41z" />
    <glyph glyph-name="quotesingle" unicode="'" horiz-adv-x="222" 
d="M87 754l10 -240h27l11 240h-48z" />
    <glyph glyph-name="parenleft" unicode="(" horiz-adv-x="240" 
d="M137 780q-19 -49 -32.5 -110t-22 -127t-12.5 -128.5t-4 -119.5q0 -55 4 -117t12.5 -125.5t22.5 -123t32 -106.5l37 25q-31 112 -47 225t-16 222q0 236 63 459z" />
    <glyph glyph-name="parenright" unicode=")" horiz-adv-x="240" 
d="M66 754q63 -223 63 -459q0 -109 -16 -222t-47 -225l37 -25q19 48 32.5 107t22 122.5t12.5 125.5t4 117q0 57 -4 120t-12 128t-22 127t-33 110z" />
    <glyph glyph-name="asterisk" unicode="*" horiz-adv-x="619" 
d="M289 604l-142 50l-15 -47l144 -43l-91 -120l39 -28l86 124l85 -124l40 29l-92 119l144 43l-15 47l-142 -50l4 150h-49z" />
    <glyph glyph-name="plus" unicode="+" 
d="M286 280h-232v-48h232v-232h48v232h232v48h-232v232h-48v-232z" />
    <glyph glyph-name="comma" unicode="," horiz-adv-x="310" 
d="M153 74l-68 -229l30 -11l83 226z" />
    <glyph glyph-name="hyphen" unicode="-" horiz-adv-x="190" 
d="M0 342v-45h190v45h-190z" />
    <glyph glyph-name="period" unicode="." horiz-adv-x="310" 
d="M155 72q-17 0 -29 -12t-12 -29t12 -29t29 -12t29 12t12 29t-12 29t-29 12z" />
    <glyph glyph-name="slash" unicode="/" horiz-adv-x="640" 
d="M570 825l-535 -948l37 -19l533 949z" />
    <glyph glyph-name="zero" unicode="0" 
d="M310 764q-67 0 -119 -35.5t-86.5 -93.5t-51.5 -124.5t-17 -128.5t16.5 -130t50.5 -128t86.5 -97t120.5 -37t120.5 37t86.5 97t50.5 128t16.5 130t-17 129t-51.5 124.5t-86.5 93t-119 35.5zM310 35q-57 0 -100.5 33t-71 86t-41 113t-13.5 115q0 48 13.5 106t41 111
t71 86.5t100.5 33.5t100.5 -33.5t71 -86.5t41 -111t13.5 -106q0 -55 -13 -114.5t-41 -113t-71.5 -86.5t-100.5 -33z" />
    <glyph glyph-name="one" unicode="1" 
d="M308 709v-709h48v754h-144l-23 -45h119z" />
    <glyph glyph-name="two" unicode="2" 
d="M176 45l219 244l4 4q67 74 102.5 129t35.5 121q0 46 -17.5 87t-48.5 71t-72.5 46.5t-87.5 16.5q-49 0 -97.5 -21.5t-81.5 -58.5q-26 -30 -35.5 -63.5t-11.5 -79.5h48q0 79 50.5 128.5t127.5 49.5q36 0 68.5 -13t57 -36.5t38.5 -55.5t14 -68q0 -30 -12 -60.5t-30.5 -59
t-38 -51.5t-50.5 -57l-8 -9l-281 -309h465v45h-358z" />
    <glyph glyph-name="three" unicode="3" 
d="M302 370q72 0 121.5 -44.5t49.5 -116.5q0 -35 -13.5 -66.5t-38 -55.5t-56 -38t-66.5 -14q-68 0 -111 41.5t-49 108.5h-48q0 -43 16.5 -79t45.5 -62t67 -40t80 -14q46 0 87 17t71 47t46.5 71t16.5 87q0 60 -34 111t-90 72q53 23 83 70t30 105q0 40 -15 75.5t-42 62
t-63 41.5t-76 15q-87 0 -138 -50.5t-57 -137.5h48q4 65 42.5 104t103.5 39q30 0 57 -11.5t48 -31.5t32.5 -47t11.5 -57q0 -68 -46 -111.5t-114 -45.5v-45z" />
    <glyph glyph-name="four" unicode="4" 
d="M467 188v592h-6l-449 -631v-6h407v-143h48v143h106v45h-106zM419 188h-319v6l313 440h6v-446z" />
    <glyph glyph-name="five" unicode="5" 
d="M531 709v45h-287l-98 -320q29 17 56 25.5t59 8.5q44 0 84 -16t70.5 -44.5t48 -67.5t17.5 -83q0 -47 -17 -87.5t-47.5 -71t-71 -47t-87.5 -16.5q-53 0 -102 27t-78 71l-44 -18q36 -59 95.5 -92t127.5 -33q56 0 106 19.5t87.5 56t58 85t20.5 105.5q0 53 -19.5 100
t-54.5 82.5t-82 55t-100 19.5q-32 0 -57 -8l63 204h252z" />
    <glyph glyph-name="six" unicode="6" 
d="M340 764l-243 -345q-28 -40 -41.5 -79.5t-13.5 -86.5q0 -54 21 -102.5t58 -84.5t85.5 -56t102.5 -20q56 0 106 20.5t88 61.5q35 38 55 85t20 96q0 53 -20.5 101t-57 85.5t-84.5 58t-101 20.5q-52 0 -100 -20l-2 2l166 235zM310 35q-45 0 -85 17t-70.5 47.5t-47.5 70
t-17 84.5q0 44 17 84t47.5 70.5t71 47.5t84.5 17t84.5 -17t71 -47.5t47.5 -70.5t17 -84q0 -45 -17 -85t-47.5 -70t-71 -47t-84.5 -17z" />
    <glyph glyph-name="seven" unicode="7" 
d="M528 709l-488 -688l37 -29l540 762h-547v-45h458z" />
    <glyph glyph-name="eight" unicode="8" 
d="M310 369q34 0 65 -13t55 -36t37.5 -53.5t13.5 -64.5t-13.5 -64.5t-37.5 -53.5t-55 -36t-65 -13t-65.5 13t-55 36t-37 53.5t-13.5 64.5q0 35 13.5 65t37 53t55 36t65.5 13zM310 -10q44 0 84 15.5t70.5 43.5t47.5 66t17 82q0 137 -123 196q48 24 77 71t29 101
q0 42 -15 78.5t-43 63.5t-65 42t-79 15t-79 -15t-65 -42t-43 -63.5t-15 -78.5q0 -54 29 -101t77 -71q-123 -59 -123 -196q0 -44 17 -82t48 -66t71 -43.5t83 -15.5zM310 719q31 0 59 -12t49.5 -33t33.5 -49t12 -59t-12 -58.5t-33.5 -49t-49.5 -33t-59 -11.5t-59.5 12
t-49.5 33t-33 48.5t-12 58.5t12 59t33.5 49t49.5 33t59 12z" />
    <glyph glyph-name="nine" unicode="9" 
d="M280 -8l243 344q27 39 41 78t14 83q0 56 -20 105t-56.5 85.5t-85.5 56.5t-105 20q-54 0 -103 -20t-86.5 -56t-58.5 -84t-21 -102q0 -53 20.5 -101t57 -85t84.5 -57.5t101 -20.5q52 0 101 20l2 -2l-167 -235zM311 719q44 0 84 -16.5t70.5 -47t47.5 -70t17 -84.5
q0 -44 -17 -84t-47.5 -70t-70.5 -47t-84 -17t-84.5 17t-71.5 47.5t-48 70t-17 83.5t17.5 84t48 70t71 47t84.5 17z" />
    <glyph glyph-name="colon" unicode=":" horiz-adv-x="310" 
d="M155 72q-17 0 -29 -12t-12 -29t12 -29t29 -12t29 12t12 29t-12 29t-29 12zM155 472q-17 0 -29 -12t-12 -29t12 -29t29 -12t29 12t12 29t-12 29t-29 12z" />
    <glyph glyph-name="semicolon" unicode=";" horiz-adv-x="310" 
d="M153 74l-68 -229l30 -11l83 226zM161 472q-17 0 -29 -12t-12 -29t12 -29t29 -12t29 12t12 29t-12 29t-29 12z" />
    <glyph glyph-name="less" unicode="&#x3c;" 
d="M106 256l460 204v46l-512 -223v-53l512 -235v46z" />
    <glyph glyph-name="equal" unicode="=" 
d="M566 365h-512v-48h512v48zM566 195h-512v-48h512v48z" />
    <glyph glyph-name="greater" unicode="&#x3e;" 
d="M54 41v-46l512 235v53l-512 223v-46l460 -204z" />
    <glyph glyph-name="question" unicode="?" horiz-adv-x="491" 
d="M354 303q0 -48 -28.5 -82t-77.5 -34t-80.5 30t-31.5 77q0 28 10 47t26.5 31t36.5 18.5t50 14.5q83 21 124.5 60.5t41.5 118.5t-49.5 129.5t-130.5 50.5q-35 0 -67.5 -11.5t-57.5 -33t-39.5 -51.5t-14.5 -65q0 -27 7 -64h46q-5 21 -5 53q0 55 37 91t93 36q58 0 95.5 -40
t37.5 -97q0 -35 -10.5 -59t-29.5 -38t-43 -22.5t-63 -18.5q-68 -17 -105.5 -52.5t-37.5 -100.5q0 -64 46 -106.5t112 -42.5q70 0 113 44.5t43 116.5h-48zM243 72q-17 0 -29 -12t-12 -29t12 -29t29 -12t29 12t12 29t-12 29t-29 12z" />
    <glyph glyph-name="at" unicode="@" horiz-adv-x="800" 
d="M337 193q-50 0 -78 32.5t-28 78.5q0 39 15.5 84.5t42 86t61.5 66t73 25.5q45 0 74.5 -31t29.5 -63q0 -7 -2 -13l-47 -147q-6 -20 -20 -41t-33 -38.5t-41.5 -28t-46.5 -11.5zM551 541q-21 32 -52.5 49.5t-67.5 17.5q-53 0 -98 -28t-77.5 -74t-49.5 -101t-17 -107
q0 -64 35 -105.5t98 -41.5q34 0 67.5 12t62.5 37q7 -23 27.5 -36t47.5 -13q40 0 81 22.5t76 63t55.5 93.5t20.5 111q0 69 -26.5 128.5t-74 103t-110.5 67.5t-134 24q-75 0 -143 -29.5t-120.5 -82.5t-82 -123.5t-29.5 -148.5q0 -79 28.5 -150.5t80.5 -125.5t121.5 -84
t148.5 -30q112 0 199 48.5t130 129.5h-56q-41 -66 -114 -101t-159 -35q-66 0 -127.5 27t-108.5 74.5t-74 109.5t-27 130t26 131.5t72.5 112.5t107.5 77t129 28q57 0 111 -20t97 -57t68 -88.5t25 -111.5q0 -40 -15.5 -84.5t-42 -82.5t-58 -61.5t-61.5 -23.5q-23 0 -33 8
t-10 23q0 13 9 40l103 324h-44z" />
    <glyph glyph-name="A" unicode="A" horiz-adv-x="641" 
d="M486 248l101 -248h49l-315 779l-316 -779h49l101 248h331zM468 293h-295l148 364z" />
    <glyph glyph-name="B" unicode="B" horiz-adv-x="565" 
d="M129 367h106q51 0 89.5 -4.5t69.5 -19.5q37 -18 57.5 -55t20.5 -80q0 -41 -19.5 -75.5t-54.5 -58.5q-28 -19 -62 -24t-92 -5h-115v322zM274 0q56 0 97.5 11.5t78.5 42.5q70 60 70 156q0 72 -43 124t-113 66q87 49 87 154q0 48 -15 87.5t-48 68.5q-31 27 -67.5 35.5
t-88.5 8.5h-151v-754h193zM129 709h83q45 0 74.5 -4t54.5 -20q31 -19 46.5 -52t15.5 -72q0 -41 -12.5 -70t-43.5 -51q-25 -18 -52.5 -23t-82.5 -5h-83v297z" />
    <glyph glyph-name="C" unicode="C" horiz-adv-x="739" 
d="M680 666q-50 46 -116 72t-134 26q-79 0 -150.5 -30t-126.5 -84t-86 -124.5t-31 -149.5q0 -78 31.5 -148t86.5 -124t126.5 -84t148.5 -30q69 0 133 24.5t118 69.5v66q-20 -25 -50 -46t-64.5 -36.5t-70 -24t-68.5 -8.5q-65 0 -129 28.5t-113 75.5q-48 47 -74.5 107.5
t-26.5 125.5q0 68 27 131t74.5 112t110 76.5t131.5 27.5q70 0 140 -33t113 -86v66z" />
    <glyph glyph-name="D" unicode="D" horiz-adv-x="652" 
d="M81 0h136q91 0 158 21.5t126 78.5q57 54 86.5 125.5t29.5 150.5q0 82 -30.5 155t-89.5 128t-124.5 75t-155.5 20h-136v-754zM129 45v664h87q76 0 134.5 -18t109.5 -64q53 -48 81 -113t28 -138q0 -67 -26 -129.5t-74 -110.5q-51 -50 -112 -70.5t-141 -20.5h-87z" />
    <glyph glyph-name="E" unicode="E" horiz-adv-x="507" 
d="M441 709v45h-360v-754h360v45h-312v345h304v45h-304v274h312z" />
    <glyph glyph-name="F" unicode="F" horiz-adv-x="444" 
d="M385 709v45h-304v-754h48v390h249v45h-249v274h256z" />
    <glyph glyph-name="G" unicode="G" horiz-adv-x="824" 
d="M470 363v-45h270q-2 -64 -23.5 -112t-68.5 -88q-48 -39 -105.5 -61t-116.5 -22q-69 0 -131.5 26.5t-110 74.5t-74 110t-26.5 131q0 67 27 129t75 110t110.5 75.5t129.5 27.5q90 0 165 -42.5t126 -119.5l39 31q-61 84 -144 130t-183 46q-79 0 -151 -30t-126.5 -84
t-85 -125t-30.5 -151q0 -76 30.5 -146t84.5 -123.5t124.5 -84t147.5 -30.5q81 0 157 32t129 90q45 49 62 108t17 143h-318z" />
    <glyph glyph-name="H" unicode="H" horiz-adv-x="716" 
d="M129 434v320h-48v-754h48v389h458v-389h48v754h-48v-320h-458z" />
    <glyph glyph-name="I" unicode="I" horiz-adv-x="210" 
d="M129 754h-48v-754h48v754z" />
    <glyph glyph-name="J" unicode="J" horiz-adv-x="218" 
d="M89 754v-740q0 -26 -2.5 -47t-10.5 -39.5t-24.5 -29.5t-43.5 -11q-29 0 -54.5 18t-38.5 46l-36 -27q18 -37 51 -59.5t74 -22.5q40 0 66 13t41 36.5t20.5 53.5t5.5 69v740h-48z" />
    <glyph glyph-name="K" unicode="K" horiz-adv-x="569" 
d="M129 402v352h-48v-754h48v340l20 20l362 -360h63l-392 391l369 363h-64z" />
    <glyph glyph-name="L" unicode="L" horiz-adv-x="327" 
d="M129 754h-48v-754h240v45h-192v709z" />
    <glyph glyph-name="M" unicode="M" horiz-adv-x="897" 
d="M842 0h46l-162 779l-278 -686l-277 686l-162 -779h46l129 624h2l262 -649l263 649h2z" />
    <glyph glyph-name="N" unicode="N" horiz-adv-x="843" 
d="M762 754h-48v-658l-633 668v-764h48v648l633 -673v779z" />
    <glyph glyph-name="O" unicode="O" horiz-adv-x="854" 
d="M427 764q-78 0 -149.5 -30t-126 -84t-85 -124.5t-30.5 -148.5t31 -148.5t85.5 -124.5t125.5 -84t149 -30t149.5 30t126 84t85 124.5t30.5 148.5t-30.5 148.5t-85 124.5t-126 84t-149.5 30zM427 719q69 0 131.5 -26.5t110.5 -74.5t74.5 -110.5t26.5 -130.5t-27 -130.5
t-74.5 -110t-110 -74.5t-131.5 -27t-131.5 27t-110 74.5t-74.5 109.5t-27 131t27 131t74.5 110t110 74.5t131.5 26.5z" />
    <glyph glyph-name="P" unicode="P" horiz-adv-x="472" 
d="M129 358h85q52 0 94 10.5t74 37.5q30 25 46.5 66t16.5 83q0 45 -17 85.5t-51 69.5q-32 27 -70.5 35.5t-92.5 8.5h-133v-754h48v358zM129 403v306h79q45 0 76 -5.5t56 -24.5q28 -20 42.5 -52.5t14.5 -69.5q0 -68 -49 -113q-27 -24 -58.5 -32.5t-73.5 -8.5h-87z" />
    <glyph glyph-name="Q" unicode="Q" horiz-adv-x="854" 
d="M520 309h-68l188 -195q-46 -36 -100.5 -57.5t-109.5 -21.5q-70 0 -133 26.5t-111 73.5t-75 110t-27 132t27 131t75 109.5t110.5 74.5t131.5 27q71 0 133.5 -27t109.5 -75.5t73 -112t26 -133.5q0 -65 -25 -121t-72 -107zM742 0h65l-99 107q54 62 82 129t28 144
q0 78 -30.5 148t-85 123t-125.5 83t-149 30q-79 0 -150.5 -30t-126 -83.5t-85 -124t-30.5 -149.5t30.5 -150t84.5 -124t125.5 -83t150.5 -30q66 0 131 24t116 66z" />
    <glyph glyph-name="R" unicode="R" horiz-adv-x="488" 
d="M207 357q98 0 157 51t59 146q0 50 -18.5 92.5t-57.5 69.5q-34 25 -73 31.5t-99 6.5h-94v-754h48v357h24l246 -357h55zM129 402v307h31q53 0 82.5 -3t52.5 -14q39 -17 59.5 -54.5t20.5 -81.5q0 -35 -13.5 -66.5t-39.5 -52.5q-26 -22 -56.5 -28.5t-75.5 -6.5h-61z" />
    <glyph glyph-name="S" unicode="S" horiz-adv-x="544" 
d="M464 658q-27 49 -77 77.5t-107 28.5q-85 0 -139 -53.5t-54 -137.5q0 -87 78 -135l136 -72l14 -7q32 -15 53.5 -27.5t41 -29t31.5 -39t12 -50.5q0 -36 -15 -69t-41 -57.5t-59.5 -38t-70.5 -13.5q-65 0 -111 36.5t-71 99.5l-42 -19q27 -74 86 -118t136 -44q46 0 88.5 16.5
t76 46.5t52.5 70t19 86q0 50 -21 86.5t-65 63.5l-144 75l-6 3q-31 15 -51 26t-38.5 26.5t-29.5 37t-11 48.5q0 60 41 102t101 42q51 0 88.5 -23t64.5 -66z" />
    <glyph glyph-name="T" unicode="T" horiz-adv-x="450" 
d="M249 709h195v45h-438v-45h195v-709h48v709z" />
    <glyph glyph-name="U" unicode="U" horiz-adv-x="660" 
d="M538 298q0 -69 -6.5 -113t-32.5 -77q-26 -34 -74 -53.5t-95 -19.5t-95 19.5t-74 53.5q-26 33 -32.5 77t-6.5 113v456h-48v-470q0 -74 8.5 -119t42.5 -87q37 -42 91.5 -65t113.5 -23t113.5 23t91.5 65q34 42 42.5 87t8.5 119v470h-48v-456z" />
    <glyph glyph-name="V" unicode="V" horiz-adv-x="555" 
d="M53 754h-48l271 -779l274 779h-48l-223 -644h-2z" />
    <glyph glyph-name="W" unicode="W" horiz-adv-x="1105" 
d="M60 754h-48l252 -779l287 697l288 -697l254 779h-48l-209 -648l-282 686l-282 -686z" />
    <glyph glyph-name="X" unicode="X" horiz-adv-x="494" 
d="M218 385l-206 -385h52l182 341l184 -341h52l-207 385l197 369h-53l-173 -324l-173 324h-53z" />
    <glyph glyph-name="Y" unicode="Y" horiz-adv-x="559" 
d="M255 322v-322h48v322l251 432h-53l-222 -382l-222 382h-53z" />
    <glyph glyph-name="Z" unicode="Z" horiz-adv-x="568" 
d="M96 45l460 709h-500v-45h416l-460 -709h531v45h-447z" />
    <glyph glyph-name="bracketleft" unicode="[" horiz-adv-x="300" 
d="M113 703h122v51h-170v-957h170v51h-122v855z" />
    <glyph glyph-name="backslash" unicode="\" horiz-adv-x="640" 
d="M35 807l533 -807l37 19l-535 806z" />
    <glyph glyph-name="bracketright" unicode="]" horiz-adv-x="300" 
d="M187 -152h-122v-51h170v957h-170v-51h122v-855z" />
    <glyph glyph-name="asciicircum" unicode="^" 
d="M101 301l209 408l210 -408h46l-230 453h-52l-230 -453h47z" />
    <glyph glyph-name="underscore" unicode="_" horiz-adv-x="500" 
d="M500 -125v50h-500v-50h500z" />
    <glyph glyph-name="grave" unicode="`" horiz-adv-x="313" 
d="M75 695l124 -145l38 17l-101 147z" />
    <glyph glyph-name="a" unicode="a" horiz-adv-x="560" 
d="M256 430q83 0 134 -54.5t51 -136.5q0 -87 -48.5 -147t-133.5 -60q-41 0 -74.5 16t-58 44.5t-37 65t-12.5 76.5q0 37 13 72.5t37 63.5t57 44t72 16zM483 462h-45v-80h-2q-29 43 -76.5 66.5t-101.5 23.5q-51 0 -93 -18t-72 -50.5t-45.5 -76t-15.5 -93.5t16 -94.5t46 -78
t72.5 -52.5t93.5 -19q53 0 102 25t74 68h2v-83h45v462z" />
    <glyph glyph-name="b" unicode="b" horiz-adv-x="560" 
d="M301 32q-42 0 -76 16t-58 44q-48 57 -48 141q0 85 49.5 141t134.5 56q39 0 72.5 -16t57.5 -43.5t37 -63t13 -73.5q0 -40 -12.5 -76.5t-36.5 -65t-58 -44.5t-75 -16zM77 0h45v83h2q25 -43 74 -68t102 -25q51 0 93.5 18.5t72.5 52.5t46 78.5t16 94.5t-16 94t-45.5 76
t-71.5 50t-93 18q-54 0 -101.5 -23.5t-76.5 -66.5h-2v443h-45v-825z" />
    <glyph glyph-name="c" unicode="c" horiz-adv-x="477" 
d="M431 415q-67 57 -161 57q-50 0 -93.5 -18.5t-76 -51.5t-50.5 -77t-18 -93q0 -50 17.5 -94.5t49.5 -77.5t75.5 -51.5t94.5 -18.5q46 0 89.5 16.5t78.5 47.5v61q-32 -39 -76.5 -61t-93.5 -22q-40 0 -75 16t-61 44.5t-40 64.5t-14 75t14.5 75t40.5 63.5t61 43.5t75 16
q94 0 163 -75v60z" />
    <glyph glyph-name="d" unicode="d" horiz-adv-x="560" 
d="M259 32q-41 0 -74.5 16t-58 44.5t-37 65t-12.5 76.5q0 37 13 72.5t37 63.5t57 44t72 16q83 0 134 -54.5t51 -136.5q0 -87 -48.5 -147t-133.5 -60zM438 0h45v825h-45v-443h-2q-29 43 -76.5 66.5t-101.5 23.5q-51 0 -93 -18t-72 -50.5t-45.5 -76t-15.5 -93.5t16 -94.5
t46 -78t72.5 -52.5t93.5 -19q53 0 102 25t74 68h2v-83z" />
    <glyph glyph-name="e" unicode="e" horiz-adv-x="510" 
d="M478 227q0 50 -15 94.5t-44 78.5t-70.5 53t-92.5 19q-49 0 -90.5 -19t-71.5 -52.5t-46 -76.5t-16 -92t15.5 -93t45.5 -77.5t71.5 -52.5t91.5 -19q68 0 122 32.5t85 92.5l-38 22q-26 -48 -68 -76.5t-95 -28.5q-80 0 -132.5 53.5t-52.5 141.5h401zM77 269q3 32 18 61.5
t40 52t56 35t66 12.5q34 0 65 -12.5t54.5 -35.5t38 -52t18.5 -61h-356z" />
    <glyph glyph-name="f" unicode="f" horiz-adv-x="240" 
d="M122 420h116v42h-116v198q0 29 2 50.5t9 41.5t23.5 32t44.5 12q9 0 25 -4q8 -1 12 -2v41q-18 7 -40 7q-33 0 -60.5 -14.5t-42.5 -41.5q-11 -20 -14.5 -48.5t-3.5 -64.5v-207h-51v-42h51v-420h45v420z" />
    <glyph glyph-name="g" unicode="g" horiz-adv-x="567" 
d="M263 430q83 0 134 -54.5t51 -136.5q0 -87 -48.5 -147t-133.5 -60q-41 0 -74.5 16t-58 44.5t-37 65t-12.5 76.5q0 37 13 72.5t37 63.5t57 44t72 16zM490 462h-45v-80h-2q-67 90 -174 90q-50 0 -92 -18.5t-73 -51.5t-48 -77t-17 -93q0 -48 16 -92t46 -78t71.5 -53t90.5 -19
q52 0 100.5 24.5t79.5 65.5h2v-57q0 -55 -8 -97t-33 -78q-24 -35 -63 -52t-85 -17q-72 0 -123.5 43t-55.5 113h-45q5 -92 69.5 -145t158.5 -53q56 0 104 23t80 66q30 41 38 85t8 111v440z" />
    <glyph glyph-name="h" unicode="h" horiz-adv-x="490" 
d="M77 825v-825h45v228q0 40 5.5 74.5t19.5 63.5t41.5 46.5t68.5 17.5q37 0 59 -11.5t33.5 -32t15 -46t3.5 -61.5v-279h45v279q0 96 -33.5 144.5t-118.5 48.5q-45 0 -81 -21.5t-56 -60.5h-2v435h-45z" />
    <glyph glyph-name="i" unicode="i" horiz-adv-x="234" 
d="M139 462h-45v-462h45v462zM117 657q-17 0 -29 -12t-12 -29t12 -29t29 -12t29 12t12 29t-12 29t-29 12z" />
    <glyph glyph-name="j" unicode="j" horiz-adv-x="234" 
d="M139 462h-45v-732h45v732zM117 657q-17 0 -29 -12t-12 -29t12 -29t29 -12t29 12t12 29t-12 29t-29 12z" />
    <glyph glyph-name="k" unicode="k" horiz-adv-x="427" 
d="M122 825h-45v-825h45v205l25 26l229 -231h59l-259 262l194 200h-58l-190 -196v559z" />
    <glyph glyph-name="l" unicode="l" horiz-adv-x="199" 
d="M122 825h-45v-825h45v825z" />
    <glyph glyph-name="m" unicode="m" horiz-adv-x="725" 
d="M122 462h-45v-462h45v254q0 32 5 62t17.5 56t35.5 42t57 16q32 0 53 -12t31.5 -32.5t14.5 -45.5t4 -55v-285h45v266q0 33 5.5 61.5t19 52t37 37t57.5 13.5q32 0 52 -10.5t30 -29t13.5 -41.5t3.5 -53v-296h45v290q0 41 -6 73.5t-21.5 57t-44 38t-71.5 13.5
q-45 0 -81 -21.5t-54 -62.5q-18 40 -52 62t-78 22q-37 0 -68.5 -18t-47.5 -50h-2v58z" />
    <glyph glyph-name="n" unicode="n" horiz-adv-x="490" 
d="M122 462h-45v-462h45v228q0 40 5.5 74.5t19.5 63.5t41.5 46.5t68.5 17.5q37 0 59 -11.5t33.5 -32t15 -46t3.5 -61.5v-279h45v279q0 96 -33.5 144.5t-118.5 48.5q-45 0 -81 -21.5t-56 -60.5h-2v72z" />
    <glyph glyph-name="o" unicode="o" horiz-adv-x="547" 
d="M272 472q-49 0 -93 -19t-77 -52t-51.5 -77.5t-18.5 -93.5q0 -48 18.5 -92t51.5 -77t77 -52t93 -19q50 0 94.5 18t78 51t52 77t18.5 95t-18.5 95t-52 77t-78 51t-94.5 18zM269 430q42 0 79 -15t64.5 -42t42.5 -64t15 -79q0 -41 -15 -77.5t-43 -63.5t-64.5 -42t-78.5 -15
q-40 0 -75.5 16t-61.5 43.5t-40.5 63.5t-14.5 75t14.5 75.5t40.5 64.5t61.5 44t75.5 16z" />
    <glyph glyph-name="p" unicode="p" horiz-adv-x="560" 
d="M301 430q41 0 75 -16.5t58 -45.5t36.5 -65.5t12.5 -76.5q0 -38 -13 -73.5t-37 -62.5t-57 -42.5t-73 -15.5q-82 0 -133 53.5t-51 135.5q0 88 48.5 148.5t133.5 60.5zM122 462h-45v-732h45v350h2q28 -43 76 -66.5t102 -23.5q51 0 93 17.5t72 50t45.5 76t15.5 93.5
q0 51 -16 95.5t-45.5 78t-72 52.5t-94.5 19q-53 0 -102 -25t-74 -68h-2v83z" />
    <glyph glyph-name="q" unicode="q" horiz-adv-x="560" 
d="M259 430q41 0 75 -16.5t58 -45.5t36.5 -65.5t12.5 -76.5q0 -38 -13 -73.5t-37 -62.5t-57 -42.5t-73 -15.5q-82 0 -133 53.5t-51 135.5q0 88 48.5 148.5t133.5 60.5zM483 462h-45v-83h-2q-25 43 -74 68t-102 25q-51 0 -94 -19t-72.5 -52.5t-45.5 -78.5t-16 -96
q0 -50 15.5 -93t45.5 -75t72 -50t93 -18q55 0 102.5 23.5t75.5 66.5h2v-350h45v732z" />
    <glyph glyph-name="r" unicode="r" horiz-adv-x="278" 
d="M122 462h-45v-462h45v236q0 43 2.5 75t12 59t29 43.5t51.5 16.5q16 0 32 -9l24 40q-25 11 -49 11q-35 0 -60.5 -18.5t-39.5 -51.5h-2v60z" />
    <glyph glyph-name="s" unicode="s" horiz-adv-x="375" 
d="M310 398q-15 32 -49 53t-69 21q-52 0 -89 -33t-37 -84q0 -28 11.5 -48.5t30.5 -34.5t39.5 -23.5t53.5 -21.5q44 -15 67 -34t23 -57q0 -44 -30 -74t-74 -30t-72.5 25.5t-42.5 68.5l-44 -14q14 -56 57.5 -89t101.5 -33q63 0 106 40.5t43 103.5q0 33 -11 56t-29 38
t-38.5 24.5t-51.5 20.5q-48 18 -71.5 35t-23.5 50q0 29 24.5 50.5t54.5 21.5q27 0 48.5 -14t32.5 -38z" />
    <glyph glyph-name="t" unicode="t" horiz-adv-x="209" 
d="M127 420h81v42h-81v165h-45v-165h-51v-42h51v-420h45v420z" />
    <glyph glyph-name="u" unicode="u" horiz-adv-x="472" 
d="M357 462v-261q0 -40 -4 -68.5t-16 -51t-36.5 -36t-64.5 -13.5t-64.5 13.5t-36.5 36t-16 51t-4 68.5v261h-45v-277q0 -49 5 -78.5t23 -54.5q23 -31 60 -46.5t78 -15.5t78 15.5t60 46.5q18 25 23 54.5t5 78.5v277h-45z" />
    <glyph glyph-name="v" unicode="v" horiz-adv-x="433" 
d="M51 462h-46l212 -487l211 487h-46l-164 -381z" />
    <glyph glyph-name="w" unicode="w" horiz-adv-x="752" 
d="M51 462h-46l208 -487l162 399l163 -399l209 487h-46l-160 -379l-164 404l-163 -404z" />
    <glyph glyph-name="x" unicode="x" horiz-adv-x="443" 
d="M192 244l-188 -244h53l164 212l165 -212h53l-188 244l172 218h-54l-148 -187l-147 187h-54z" />
    <glyph glyph-name="y" unicode="y" horiz-adv-x="460" 
d="M215 -8l-111 -262h46l310 732h-46l-177 -418l-197 418h-47z" />
    <glyph glyph-name="z" unicode="z" horiz-adv-x="480" 
d="M98 42l377 420h-411v-42h317l-378 -420h470v42h-375z" />
    <glyph glyph-name="braceleft" unicode="{" horiz-adv-x="300" 
d="M41 255q39 -28 56 -53t17 -66v-176q0 -88 30.5 -124t114.5 -39v44q-20 0 -36 3t-30 11t-22.5 24.5t-8.5 41.5v185q0 74 -17 108.5t-56 59.5v5q40 26 56.5 59t16.5 104v186q0 25 8.5 41.5t22.5 24.5t30 11t36 3v46q-83 -2 -114 -38.5t-31 -125.5v-176q0 -40 -17 -64
t-56 -51v-44z" />
    <glyph glyph-name="bar" unicode="|" horiz-adv-x="320" 
d="M136 -214h48v1000h-48v-1000z" />
    <glyph glyph-name="braceright" unicode="}" horiz-adv-x="300" 
d="M259 299q-39 27 -56 51t-17 64v176q0 89 -30.5 125.5t-114.5 38.5v-46q20 0 36 -3t30 -11t22.5 -24.5t8.5 -41.5v-186q0 -71 16.5 -104t56.5 -59v-5q-39 -25 -56 -59.5t-17 -108.5v-185q0 -25 -8.5 -41.5t-22.5 -24.5t-30 -11t-36 -3v-44q84 3 114.5 39t30.5 124v176
q0 41 17 66t56 53v44z" />
    <glyph glyph-name="asciitilde" unicode="~" 
d="M201 314q-43 0 -73 -24t-64 -67q-7 -8 -10 -12l47 -23q24 36 46.5 55t53.5 19q24 0 48.5 -9.5t61.5 -28.5q35 -19 60 -28.5t49 -9.5q46 0 80.5 29.5t65.5 79.5l-48 23q-21 -38 -43.5 -59t-53.5 -21q-13 0 -30 6.5t-44 19.5q-22 11 -29 14q-37 17 -64.5 26.5t-52.5 9.5z
" />
    <glyph glyph-name="exclamdown" unicode="&#xa1;" horiz-adv-x="320" 
d="M160 472q-17 0 -29 -12t-12 -29t12 -29t29 -12t29 12t12 29t-12 29t-29 12zM184 321h-48v-611h48v611z" />
    <glyph glyph-name="cent" unicode="&#xa2;" 
d="M506 568q-30 26 -68 41.5t-77 16.5v116h-45v-117q-46 -5 -85 -26t-66.5 -54.5t-42.5 -76t-15 -89.5q0 -44 15.5 -85t44.5 -73t67 -52.5t82 -24.5v-129h45v128q41 2 79.5 19t71.5 45v61h-2q-27 -34 -66.5 -56.5t-82.5 -26.5v399q40 -3 77.5 -23t67.5 -53v60zM316 186
q-35 5 -65 22.5t-52.5 45t-34.5 61.5t-12 69q0 36 12 69.5t34 61t52.5 45t65.5 22.5v-396z" />
    <glyph glyph-name="sterling" unicode="&#xa3;" 
d="M91 -10q28 28 53.5 43.5t55.5 15.5q19 0 42.5 -7.5t59.5 -21.5q37 -14 63.5 -22t49.5 -8q43 0 80 30t61 73l-41 24q-18 -35 -45.5 -58.5t-60.5 -23.5q-17 0 -44.5 8.5t-66.5 23.5q-25 10 -35 13l-10 3q26 26 41.5 59.5t15.5 66.5l-2 33h127v45h-136q-19 47 -74 136
q-7 10 -19 30q-22 35 -34 61.5t-12 55.5t11.5 56t32 48t47 33t56.5 12q67 0 108.5 -43.5t41.5 -110.5h48q0 41 -14.5 77.5t-40.5 64t-61.5 42.5t-75.5 15q-39 0 -75.5 -14t-65 -39.5t-44.5 -60.5t-16 -75q0 -41 13 -73.5t41 -76.5l81 -138h-112v-45h124l3 -29
q0 -34 -18 -64.5t-46 -54.5q-37 0 -73 -18t-61 -47z" />
    <glyph glyph-name="currency" unicode="&#xa4;" 
d="M68 498l40 -40q-28 -44 -40.5 -80t-12.5 -78t12.5 -78t40.5 -80l-40 -40l36 -36l42 42q42 -30 80 -44t84 -14q47 0 84.5 14t79.5 44l42 -42l36 36l-40 40q28 44 40.5 80t12.5 78t-12.5 78t-40.5 80l40 40l-36 36l-42 -42q-42 30 -79.5 44t-84.5 14q-46 0 -84 -14t-80 -44
l-42 42zM310 502q43 -1 80.5 -16t66 -42t44.5 -64t16 -80q-1 -40 -17 -76.5t-45 -65t-66.5 -44.5t-78.5 -16t-78.5 16t-66 44.5t-45 65t-17.5 76.5q0 43 16 80t44.5 64t66 42t80.5 16z" />
    <glyph glyph-name="yen" unicode="&#xa5;" 
d="M286 322h-204v-45h204v-277h48v277h204v45h-204l44 75h160v45h-134l181 312h-58l-217 -377l-217 377h-58l181 -312h-134v-45h161z" />
    <glyph glyph-name="brokenbar" unicode="&#xa6;" horiz-adv-x="320" 
d="M136 -89h48v250h-48v-250zM136 411h48v250h-48v-250z" />
    <glyph glyph-name="section" unicode="&#xa7;" 
d="M310 155q-55 0 -95 39t-40 93q0 27 10.5 51t29.5 43t43.5 29.5t51.5 10.5q26 0 50.5 -10.5t43.5 -29.5t29.5 -43.5t10.5 -50.5q0 -54 -40 -93t-94 -39zM144 -11v-10q0 -88 38.5 -130t125.5 -42q78 0 128 39.5t50 115.5q0 114 -107 155q52 26 82.5 68.5t30.5 98.5
q0 44 -12 75.5t-33 51t-45 31.5t-59 24l-17 6q-34 11 -55 19.5t-39.5 22t-29 35t-10.5 51.5q0 54 34 86.5t88 32.5q65 0 94 -35t30 -101h48q-7 93 -42.5 137t-124.5 44q-76 0 -125.5 -41.5t-49.5 -116.5q0 -55 23 -90t73 -60q-54 -22 -83.5 -67.5t-29.5 -104.5
q0 -41 12.5 -70.5t34.5 -49.5t50 -34.5t68 -27.5l5 -2q34 -11 56 -20t41.5 -23.5t31.5 -36t12 -51.5q0 -55 -36 -86t-93 -31q-62 0 -89 30.5t-28 93.5v13h-48z" />
    <glyph glyph-name="dieresis" unicode="&#xa8;" horiz-adv-x="421" 
d="M117 674q-16 0 -28 -12t-12 -28t12 -28t28 -12t28 12t12 28t-12 28t-28 12zM304 674q-16 0 -28 -12t-12 -28t12 -28t28 -12t28 12t12 28t-12 28t-28 12z" />
    <glyph glyph-name="copyright" unicode="&#xa9;" horiz-adv-x="800" 
d="M401 -10q78 0 148.5 30t124.5 84t83.5 124.5t29.5 149.5q0 78 -29.5 148.5t-83.5 124.5t-124.5 83.5t-148.5 29.5q-79 0 -149.5 -29.5t-124.5 -83t-84 -124.5t-30 -149q0 -79 30 -150t83.5 -124.5t124.5 -83.5t150 -30zM401 38q-70 0 -132 26t-109 73t-73 109t-26 132
q0 69 26 131t73 108.5t109 72.5t132 26q69 0 131 -26t108.5 -72.5t72.5 -108.5t26 -131q0 -70 -26 -132t-72.5 -109t-108.5 -73t-131 -26zM549 308q-6 -47 -44 -74.5t-87 -27.5q-36 0 -67 14t-53 39t-34 57t-12 66q0 74 44.5 123.5t119.5 49.5q48 0 86.5 -27t46.5 -71h48
q-10 68 -60 107t-122 39q-96 0 -153.5 -62t-57.5 -160q0 -47 15.5 -88t43.5 -71t67.5 -47t87.5 -17q69 0 120.5 41t58.5 109h-48z" />
    <glyph glyph-name="ordfeminine" unicode="&#xaa;" horiz-adv-x="336" 
d="M163 730q51 0 84.5 -31t33.5 -76q0 -48 -31.5 -81t-84.5 -33q-48 0 -78.5 33t-30.5 78q0 44 30.5 77t76.5 33zM315 758h-29v-48h-2q-18 26 -49 40t-66 14q-67 0 -107 -40.5t-40 -102.5t40.5 -104t107.5 -42q34 0 66 15t48 41h2v-50h29v277z" />
    <glyph glyph-name="guillemotleft" unicode="&#xab;" horiz-adv-x="397" 
d="M209 320l121 142l-29 27l-146 -169l146 -169l29 27zM89 320l121 142l-29 27l-146 -169l146 -169l29 27z" />
    <glyph glyph-name="logicalnot" unicode="&#xac;" 
d="M518 99h48v266h-512v-48h464v-218z" />
    <glyph glyph-name="minus" unicode="&#xad;" 
d="M54 232h512v48h-512v-48z" />
    <glyph glyph-name="minus" unicode="&#x2212;" 
d="M54 232h512v48h-512v-48z" />
    <glyph glyph-name="registered" unicode="&#xae;" horiz-adv-x="800" 
d="M401 -10q78 0 148.5 30t124.5 84t83.5 124.5t29.5 149.5q0 78 -29.5 148.5t-83.5 124.5t-124.5 83.5t-148.5 29.5q-79 0 -149.5 -29.5t-124.5 -83t-84 -124.5t-30 -149q0 -79 30 -150t83.5 -124.5t124.5 -83.5t150 -30zM401 38q-70 0 -132 26t-109 73t-73 109t-26 132
q0 69 26 131t73 108.5t109 72.5t132 26q69 0 131 -26t108.5 -72.5t72.5 -108.5t26 -131q0 -70 -26 -132t-72.5 -109t-108.5 -73t-131 -26zM462 353q61 2 97 29.5t36 86.5q0 55 -34.5 83.5t-115.5 28.5h-185v-423h48v195h99l121 -195h62zM308 401v132h125q23 0 42.5 -2.5
t35.5 -9t26 -19t10 -32.5q0 -43 -37 -56t-119 -13h-83z" />
    <glyph glyph-name="macron" unicode="&#xaf;" horiz-adv-x="456" 
d="M75 674v-45h305v45h-305z" />
    <glyph glyph-name="degree" unicode="&#xb0;" horiz-adv-x="400" 
d="M350 614q0 30 -11.5 57.5t-32.5 48.5t-48.5 32.5t-57.5 11.5t-57.5 -11.5t-48.5 -32.5t-32.5 -48t-11.5 -58q0 -30 11.5 -57.5t32.5 -48.5t48.5 -32.5t57.5 -11.5t57.5 11.5t48.5 32t32.5 48t11.5 58.5zM199 722q46 0 77.5 -31.5t31.5 -76.5q0 -46 -31.5 -77t-76.5 -31
q-46 0 -77 31t-31 77q0 45 31 76.5t76 31.5z" />
    <glyph glyph-name="plusminus" unicode="&#xb1;" 
d="M286 320h-232v-48h232v-192h48v192h232v48h-232v192h-48v-192zM54 0h512v48h-512v-48z" />
    <glyph glyph-name="twosuperior" unicode="&#xb2;" horiz-adv-x="372" 
d="M114 340l136 138q40 40 64 76.5t24 77.5q0 56 -43 94t-104 38q-32 0 -63.5 -13t-52.5 -35q-17 -17 -23.5 -37.5t-7.5 -47.5h34q0 45 31 72t82 27q48 0 80.5 -26.5t32.5 -69.5q0 -35 -23.5 -68t-63.5 -74l-1 -1l-182 -185h302v34h-222z" />
    <glyph glyph-name="threesuperior" unicode="&#xb3;" horiz-adv-x="372" 
d="M183 525q47 0 78 -25.5t31 -68.5q0 -42 -32 -69.5t-79 -27.5q-44 0 -70 22t-31 61h-34q0 -51 40 -84t96 -33q61 0 102.5 38.5t41.5 94.5q0 36 -22 66.5t-59 43.5q34 14 54 42t20 63q0 48 -37.5 82t-90.5 34q-56 0 -89 -30t-38 -82h34q5 78 92 78q41 0 68 -22.5t27 -58.5
q0 -41 -29 -65.5t-73 -24.5v-34z" />
    <glyph glyph-name="acute" unicode="&#xb4;" horiz-adv-x="313" 
d="M176 714l-101 -147l38 -17l124 145z" />
    <glyph glyph-name="mu" unicode="&#xb5;" horiz-adv-x="472" 
d="M115 -270v342h2q13 -38 49 -60t70 -22q41 0 78 15.5t60 46.5q18 25 23 54.5t5 78.5v277h-45v-261q0 -40 -4 -68.5t-16 -51t-36.5 -36t-64.5 -13.5q-36 0 -60.5 18.5t-37.5 48.5t-18 64t-5 71v228h-45v-732h45z" />
    <glyph glyph-name="paragraph" unicode="&#xb6;" 
d="M282 -178h48v887h92v-887h48v887h40v45h-197q-103 0 -153 -49.5t-50 -144.5q0 -38 12.5 -72.5t35.5 -61t55 -41.5t69 -15v-548z" />
    <glyph glyph-name="periodcentered" unicode="&#xb7;" horiz-adv-x="310" 
d="M155 297q-17 0 -29 -12t-12 -29t12 -29t29 -12t29 12t12 29t-12 29t-29 12z" />
    <glyph glyph-name="periodcentered" unicode="&#x2219;" horiz-adv-x="310" 
d="M155 297q-17 0 -29 -12t-12 -29t12 -29t29 -12t29 12t12 29t-12 29t-29 12z" />
    <glyph glyph-name="cedilla" unicode="&#xb8;" horiz-adv-x="299" 
d="M224 -42l-56 22l-93 -144l38 -19z" />
    <glyph glyph-name="onesuperior" unicode="&#xb9;" horiz-adv-x="372" 
d="M210 720v-414h34v448h-95l-15 -34h76z" />
    <glyph glyph-name="ordmasculine" unicode="&#xba;" horiz-adv-x="328" 
d="M163 764q-65 0 -110.5 -42.5t-45.5 -102.5q0 -29 12 -55t34 -46.5t50 -31.5t60 -11q66 0 112 41.5t46 103.5q0 61 -45.5 102.5t-112.5 41.5zM161 730q51 0 86 -32.5t35 -79.5q0 -46 -35.5 -77.5t-85.5 -31.5q-48 0 -81.5 32.5t-33.5 76.5q0 45 33.5 78.5t81.5 33.5z" />
    <glyph glyph-name="guillemotright" unicode="&#xbb;" horiz-adv-x="397" 
d="M67 178l29 -27l146 169l-146 169l-29 -27l121 -142zM187 178l29 -27l146 169l-146 169l-29 -27l121 -142z" />
    <glyph glyph-name="onequarter" unicode="&#xbc;" horiz-adv-x="930" 
d="M176 720v-414h34v448h-95l-15 -34h76zM764 116v352h-6l-287 -382v-4h259v-82h34v82h66v34h-66zM730 116h-191v4l186 247h5v-251zM649 772l-447 -771l32 -18l447 771z" />
    <glyph glyph-name="onehalf" unicode="&#xbd;" horiz-adv-x="930" 
d="M176 720v-414h34v448h-95l-15 -34h76zM606 34l136 138q40 40 64 76.5t24 77.5q0 56 -43 94t-104 38q-32 0 -63.5 -13t-52.5 -35q-17 -17 -23.5 -37.5t-7.5 -47.5h34q0 45 31 72t82 27q48 0 80.5 -26.5t32.5 -69.5q0 -35 -23.5 -68t-63.5 -74l-1 -1l-182 -185h302v34h-222
zM605 772l-447 -771l32 -18l447 771z" />
    <glyph glyph-name="threequarters" unicode="&#xbe;" horiz-adv-x="930" 
d="M804 116v352h-6l-287 -382v-4h259v-82h34v82h66v34h-66zM770 116h-191v4l186 247h5v-251zM197 525q47 0 78 -25.5t31 -68.5q0 -42 -32 -69.5t-79 -27.5q-44 0 -70 22t-31 61h-34q0 -51 40 -84t96 -33q61 0 102.5 38.5t41.5 94.5q0 36 -22 66.5t-59 43.5q34 14 54 42
t20 63q0 48 -37.5 82t-90.5 34q-56 0 -89 -30t-38 -82h34q5 78 92 78q41 0 68 -22.5t27 -58.5q0 -41 -29 -65.5t-73 -24.5v-34zM702 772l-447 -771l32 -18l447 771z" />
    <glyph glyph-name="questiondown" unicode="&#xbf;" horiz-adv-x="491" 
d="M137 159q0 48 29 82t77 34q49 0 80.5 -30t31.5 -77q0 -28 -10 -47t-26.5 -31t-36 -18.5t-50.5 -14.5q-83 -21 -124.5 -60.5t-41.5 -118.5t50 -129.5t130 -50.5q35 0 67.5 11.5t57.5 33t39.5 51.5t14.5 65q0 27 -7 64h-46q5 -21 5 -53q0 -55 -37 -91t-93 -36
q-58 0 -95.5 40t-37.5 97q0 35 10.5 59t29.5 38t43 22.5t63 18.5q68 17 105.5 53t37.5 100t-46 106.5t-112 42.5q-70 0 -113 -44.5t-43 -116.5h48zM248 472q-17 0 -29 -12t-12 -29t12 -29t29 -12t29 12t12 29t-12 29t-29 12z" />
    <glyph glyph-name="Agrave" unicode="&#xc0;" horiz-adv-x="641" 
d="M239 952l124 -145l38 17l-101 147zM486 248l101 -248h49l-315 779l-316 -779h49l101 248h331zM468 293h-295l148 364z" />
    <glyph glyph-name="Aacute" unicode="&#xc1;" horiz-adv-x="641" 
d="M340 971l-101 -147l38 -17l124 145zM486 248l101 -248h49l-315 779l-316 -779h49l101 248h331zM468 293h-295l148 364z" />
    <glyph glyph-name="Acircumflex" unicode="&#xc2;" horiz-adv-x="641" 
d="M183 845l36 -29l102 77l100 -77l38 29l-138 106zM486 248l101 -248h49l-315 779l-316 -779h49l101 248h331zM468 293h-295l148 364z" />
    <glyph glyph-name="Atilde" unicode="&#xc3;" horiz-adv-x="641" 
d="M206 843q6 19 16.5 30t27.5 11q14 0 30.5 -5.5t37.5 -14.5q24 -10 38.5 -15t26.5 -5q28 0 51 19t30 46l-29 22q-6 -17 -18.5 -29t-29.5 -12q-15 0 -48 14l-15 6l-1 1q-45 18 -69 18q-26 0 -46.5 -18.5t-31.5 -45.5zM486 248l101 -248h49l-315 779l-316 -779h49l101 248
h331zM468 293h-295l148 364z" />
    <glyph glyph-name="Adieresis" unicode="&#xc4;" horiz-adv-x="641" 
d="M227 931q-16 0 -28 -12t-12 -28t12 -28t28 -12t28 12t12 28t-12 28t-28 12zM414 931q-16 0 -28 -12t-12 -28t12 -28t28 -12t28 12t12 28t-12 28t-28 12zM486 248l101 -248h49l-315 779l-316 -779h49l101 248h331zM468 293h-295l148 364z" />
    <glyph glyph-name="Aring" unicode="&#xc5;" horiz-adv-x="641" 
d="M321 971q-36 0 -61.5 -25.5t-25.5 -61.5t25.5 -61.5t61.5 -25.5t61.5 25.5t25.5 61.5t-25.5 61.5t-61.5 25.5zM321 931q19 0 33 -14t14 -33t-14 -33t-33 -14t-33 14t-14 33t14 33t33 14zM486 248l101 -248h49l-315 779l-316 -779h49l101 248h331zM468 293h-295l148 364z
" />
    <glyph glyph-name="AE" unicode="&#xc6;" horiz-adv-x="942" 
d="M480 248l100 -248h365l-18 45h-312l-140 345h303l-19 45h-303l-112 274h311l-17 45h-329l-304 -754h54l98 248h323zM461 293h-285l141 355z" />
    <glyph glyph-name="Ccedilla" unicode="&#xc7;" horiz-adv-x="739" 
d="M680 666q-50 46 -116 72t-134 26q-79 0 -150.5 -30t-126.5 -84t-86 -124.5t-31 -149.5q0 -78 31.5 -148t86.5 -124t126.5 -84t148.5 -30q69 0 133 24.5t118 69.5v66q-20 -25 -50 -46t-64.5 -36.5t-70 -24t-68.5 -8.5q-65 0 -129 28.5t-113 75.5q-48 47 -74.5 107.5
t-26.5 125.5q0 68 27 131t74.5 112t110 76.5t131.5 27.5q70 0 140 -33t113 -86v66zM444 -42l-56 22l-93 -144l38 -19z" />
    <glyph glyph-name="Egrave" unicode="&#xc8;" horiz-adv-x="507" 
d="M172 952l124 -145l38 17l-101 147zM441 709v45h-360v-754h360v45h-312v345h304v45h-304v274h312z" />
    <glyph glyph-name="Eacute" unicode="&#xc9;" horiz-adv-x="507" 
d="M293 971l-101 -147l38 -17l124 145zM441 709v45h-360v-754h360v45h-312v345h304v45h-304v274h312z" />
    <glyph glyph-name="Ecircumflex" unicode="&#xca;" horiz-adv-x="507" 
d="M116 845l36 -29l102 77l100 -77l38 29l-138 106zM441 709v45h-360v-754h360v45h-312v345h304v45h-304v274h312z" />
    <glyph glyph-name="Edieresis" unicode="&#xcb;" horiz-adv-x="507" 
d="M160 931q-16 0 -28 -12t-12 -28t12 -28t28 -12t28 12t12 28t-12 28t-28 12zM347 931q-16 0 -28 -12t-12 -28t12 -28t28 -12t28 12t12 28t-12 28t-28 12zM441 709v45h-360v-754h360v45h-312v345h304v45h-304v274h312z" />
    <glyph glyph-name="Igrave" unicode="&#xcc;" horiz-adv-x="210" 
d="M24 952l124 -145l38 17l-101 147zM129 754h-48v-754h48v754z" />
    <glyph glyph-name="Iacute" unicode="&#xcd;" horiz-adv-x="210" 
d="M125 971l-101 -147l38 -17l124 145zM129 754h-48v-754h48v754z" />
    <glyph glyph-name="Icircumflex" unicode="&#xce;" horiz-adv-x="210" 
d="M-33 845l36 -29l102 77l100 -77l38 29l-138 106zM129 754h-48v-754h48v754z" />
    <glyph glyph-name="Idieresis" unicode="&#xcf;" horiz-adv-x="210" 
d="M12 931q-16 0 -28 -12t-12 -28t12 -28t28 -12t28 12t12 28t-12 28t-28 12zM199 931q-16 0 -28 -12t-12 -28t12 -28t28 -12t28 12t12 28t-12 28t-28 12zM129 754h-48v-754h48v754z" />
    <glyph glyph-name="Eth" unicode="&#xd0;" horiz-adv-x="652" 
d="M129 709h87q76 0 134.5 -18t109.5 -64q53 -48 81 -113t28 -138q0 -67 -26 -129.5t-74 -110.5q-51 -50 -112 -70.5t-141 -20.5h-87v344h173v45h-173v275zM81 0h136q91 0 158 21.5t126 78.5q57 54 86.5 125.5t29.5 150.5q0 82 -30.5 155t-89.5 128t-124.5 75t-155.5 20
h-136v-320h-81v-45h81v-389z" />
    <glyph glyph-name="Ntilde" unicode="&#xd1;" horiz-adv-x="843" 
d="M307 843q6 19 16.5 30t27.5 11q14 0 30.5 -5.5t37.5 -14.5q24 -10 38.5 -15t26.5 -5q28 0 51 19t30 46l-29 22q-6 -17 -18.5 -29t-29.5 -12q-15 0 -48 14l-15 6l-1 1q-45 18 -69 18q-26 0 -46.5 -18.5t-31.5 -45.5zM762 754h-48v-658l-633 668v-764h48v648l633 -673v779z
" />
    <glyph glyph-name="Ograve" unicode="&#xd2;" horiz-adv-x="854" 
d="M346 952l124 -145l38 17l-101 147zM427 764q-78 0 -149.5 -30t-126 -84t-85 -124.5t-30.5 -148.5t31 -148.5t85.5 -124.5t125.5 -84t149 -30t149.5 30t126 84t85 124.5t30.5 148.5t-30.5 148.5t-85 124.5t-126 84t-149.5 30zM427 719q69 0 131.5 -26.5t110.5 -74.5
t74.5 -110.5t26.5 -130.5t-27 -130.5t-74.5 -110t-110 -74.5t-131.5 -27t-131.5 27t-110 74.5t-74.5 109.5t-27 131t27 131t74.5 110t110 74.5t131.5 26.5z" />
    <glyph glyph-name="Oacute" unicode="&#xd3;" horiz-adv-x="854" 
d="M447 971l-101 -147l38 -17l124 145zM427 764q-78 0 -149.5 -30t-126 -84t-85 -124.5t-30.5 -148.5t31 -148.5t85.5 -124.5t125.5 -84t149 -30t149.5 30t126 84t85 124.5t30.5 148.5t-30.5 148.5t-85 124.5t-126 84t-149.5 30zM427 719q69 0 131.5 -26.5t110.5 -74.5
t74.5 -110.5t26.5 -130.5t-27 -130.5t-74.5 -110t-110 -74.5t-131.5 -27t-131.5 27t-110 74.5t-74.5 109.5t-27 131t27 131t74.5 110t110 74.5t131.5 26.5z" />
    <glyph glyph-name="Ocircumflex" unicode="&#xd4;" horiz-adv-x="854" 
d="M289 845l36 -29l102 77l100 -77l38 29l-138 106zM427 764q-78 0 -149.5 -30t-126 -84t-85 -124.5t-30.5 -148.5t31 -148.5t85.5 -124.5t125.5 -84t149 -30t149.5 30t126 84t85 124.5t30.5 148.5t-30.5 148.5t-85 124.5t-126 84t-149.5 30zM427 719q69 0 131.5 -26.5
t110.5 -74.5t74.5 -110.5t26.5 -130.5t-27 -130.5t-74.5 -110t-110 -74.5t-131.5 -27t-131.5 27t-110 74.5t-74.5 109.5t-27 131t27 131t74.5 110t110 74.5t131.5 26.5z" />
    <glyph glyph-name="Otilde" unicode="&#xd5;" horiz-adv-x="854" 
d="M313 843q6 19 16.5 30t27.5 11q14 0 30.5 -5.5t37.5 -14.5q24 -10 38.5 -15t26.5 -5q28 0 51 19t30 46l-29 22q-6 -17 -18.5 -29t-29.5 -12q-15 0 -48 14l-15 6l-1 1q-45 18 -69 18q-26 0 -46.5 -18.5t-31.5 -45.5zM427 764q-78 0 -149.5 -30t-126 -84t-85 -124.5
t-30.5 -148.5t31 -148.5t85.5 -124.5t125.5 -84t149 -30t149.5 30t126 84t85 124.5t30.5 148.5t-30.5 148.5t-85 124.5t-126 84t-149.5 30zM427 719q69 0 131.5 -26.5t110.5 -74.5t74.5 -110.5t26.5 -130.5t-27 -130.5t-74.5 -110t-110 -74.5t-131.5 -27t-131.5 27
t-110 74.5t-74.5 109.5t-27 131t27 131t74.5 110t110 74.5t131.5 26.5z" />
    <glyph glyph-name="Odieresis" unicode="&#xd6;" horiz-adv-x="854" 
d="M334 931q-16 0 -28 -12t-12 -28t12 -28t28 -12t28 12t12 28t-12 28t-28 12zM521 931q-16 0 -28 -12t-12 -28t12 -28t28 -12t28 12t12 28t-12 28t-28 12zM427 764q-78 0 -149.5 -30t-126 -84t-85 -124.5t-30.5 -148.5t31 -148.5t85.5 -124.5t125.5 -84t149 -30t149.5 30
t126 84t85 124.5t30.5 148.5t-30.5 148.5t-85 124.5t-126 84t-149.5 30zM427 719q69 0 131.5 -26.5t110.5 -74.5t74.5 -110.5t26.5 -130.5t-27 -130.5t-74.5 -110t-110 -74.5t-131.5 -27t-131.5 27t-110 74.5t-74.5 109.5t-27 131t27 131t74.5 110t110 74.5t131.5 26.5z" />
    <glyph glyph-name="multiply" unicode="&#xd7;" 
d="M279 256l-225 -224l31 -32l225 225l226 -225l30 32l-224 224l224 222l-30 34l-226 -226l-226 226l-30 -34z" />
    <glyph glyph-name="Oslash" unicode="&#xd8;" horiz-adv-x="854" 
d="M171 151q-41 46 -64 104t-23 122q0 69 27 131t74.5 110t110 74.5t131.5 26.5q63 0 121 -23t104 -64zM680 605q43 -46 66.5 -105t23.5 -123q0 -68 -27 -130.5t-74.5 -110t-110 -74.5t-131.5 -27q-63 0 -122 23t-106 65zM49 29l27 -29l91 91q52 -48 119 -74.5t141 -26.5
q78 0 149.5 30t126 84t85 124.5t30.5 148.5q0 74 -27.5 141t-77.5 120l92 92l-29 26l-91 -91q-53 47 -119.5 73t-138.5 26q-78 0 -149.5 -30t-126 -84t-85 -124.5t-30.5 -148.5q0 -72 27 -138.5t76 -119.5z" />
    <glyph glyph-name="Ugrave" unicode="&#xd9;" horiz-adv-x="660" 
d="M234 952l124 -145l38 17l-101 147zM538 298q0 -69 -6.5 -113t-32.5 -77q-26 -34 -74 -53.5t-95 -19.5t-95 19.5t-74 53.5q-26 33 -32.5 77t-6.5 113v456h-48v-470q0 -74 8.5 -119t42.5 -87q37 -42 91.5 -65t113.5 -23t113.5 23t91.5 65q34 42 42.5 87t8.5 119v470h-48
v-456z" />
    <glyph glyph-name="Uacute" unicode="&#xda;" horiz-adv-x="660" 
d="M365 971l-101 -147l38 -17l124 145zM538 298q0 -69 -6.5 -113t-32.5 -77q-26 -34 -74 -53.5t-95 -19.5t-95 19.5t-74 53.5q-26 33 -32.5 77t-6.5 113v456h-48v-470q0 -74 8.5 -119t42.5 -87q37 -42 91.5 -65t113.5 -23t113.5 23t91.5 65q34 42 42.5 87t8.5 119v470h-48
v-456z" />
    <glyph glyph-name="Ucircumflex" unicode="&#xdb;" horiz-adv-x="660" 
d="M192 845l36 -29l102 77l100 -77l38 29l-138 106zM538 298q0 -69 -6.5 -113t-32.5 -77q-26 -34 -74 -53.5t-95 -19.5t-95 19.5t-74 53.5q-26 33 -32.5 77t-6.5 113v456h-48v-470q0 -74 8.5 -119t42.5 -87q37 -42 91.5 -65t113.5 -23t113.5 23t91.5 65q34 42 42.5 87
t8.5 119v470h-48v-456z" />
    <glyph glyph-name="Udieresis" unicode="&#xdc;" horiz-adv-x="660" 
d="M237 931q-16 0 -28 -12t-12 -28t12 -28t28 -12t28 12t12 28t-12 28t-28 12zM424 931q-16 0 -28 -12t-12 -28t12 -28t28 -12t28 12t12 28t-12 28t-28 12zM538 298q0 -69 -6.5 -113t-32.5 -77q-26 -34 -74 -53.5t-95 -19.5t-95 19.5t-74 53.5q-26 33 -32.5 77t-6.5 113v456
h-48v-470q0 -74 8.5 -119t42.5 -87q37 -42 91.5 -65t113.5 -23t113.5 23t91.5 65q34 42 42.5 87t8.5 119v470h-48v-456z" />
    <glyph glyph-name="Yacute" unicode="&#xdd;" horiz-adv-x="559" 
d="M329 971l-101 -147l38 -17l124 145zM255 322v-322h48v322l251 432h-53l-222 -382l-222 382h-53z" />
    <glyph glyph-name="Thorn" unicode="&#xde;" horiz-adv-x="472" 
d="M81 0h48v198h85q52 0 94 10.5t74 37.5q30 25 46.5 66t16.5 83q0 45 -17 85.5t-51 69.5q-32 27 -70.5 35.5t-92.5 8.5h-85v160h-48v-754zM129 243v306h79q45 0 76 -5.5t56 -24.5q28 -20 42.5 -52.5t14.5 -69.5q0 -68 -49 -113q-27 -24 -58.5 -32.5t-73.5 -8.5h-87z" />
    <glyph glyph-name="germandbls" unicode="&#xdf;" horiz-adv-x="534" 
d="M77 0h45v634q0 36 3.5 65t15.5 49q14 23 40.5 35.5t55.5 12.5q52 0 86.5 -32t34.5 -83q0 -56 -35 -90t-92 -35v-42q99 -10 162.5 -74t63.5 -162q0 -47 -17.5 -88.5t-49 -73.5t-72.5 -52.5t-87 -27.5v-42q55 5 104 28.5t87 62t59 88t21 105.5q0 43 -13 84.5t-38 77.5
t-60 61.5t-76 36.5v2q41 15 64.5 52.5t23.5 83.5q0 70 -45 116t-114 46q-39 0 -75 -14.5t-58 -42.5q-20 -24 -27 -56.5t-7 -74.5v-188h-49v-42h49v-420z" />
    <glyph glyph-name="agrave" unicode="&#xe0;" horiz-adv-x="560" 
d="M184 695l124 -145l38 17l-101 147zM256 430q83 0 134 -54.5t51 -136.5q0 -87 -48.5 -147t-133.5 -60q-41 0 -74.5 16t-58 44.5t-37 65t-12.5 76.5q0 37 13 72.5t37 63.5t57 44t72 16zM483 462h-45v-80h-2q-29 43 -76.5 66.5t-101.5 23.5q-51 0 -93 -18t-72 -50.5
t-45.5 -76t-15.5 -93.5t16 -94.5t46 -78t72.5 -52.5t93.5 -19q53 0 102 25t74 68h2v-83h45v462z" />
    <glyph glyph-name="aacute" unicode="&#xe1;" horiz-adv-x="560" 
d="M315 714l-101 -147l38 -17l124 145zM256 430q83 0 134 -54.5t51 -136.5q0 -87 -48.5 -147t-133.5 -60q-41 0 -74.5 16t-58 44.5t-37 65t-12.5 76.5q0 37 13 72.5t37 63.5t57 44t72 16zM483 462h-45v-80h-2q-29 43 -76.5 66.5t-101.5 23.5q-51 0 -93 -18t-72 -50.5
t-45.5 -76t-15.5 -93.5t16 -94.5t46 -78t72.5 -52.5t93.5 -19q53 0 102 25t74 68h2v-83h45v462z" />
    <glyph glyph-name="acircumflex" unicode="&#xe2;" horiz-adv-x="560" 
d="M142 588l36 -29l102 77l100 -77l38 29l-138 106zM256 430q83 0 134 -54.5t51 -136.5q0 -87 -48.5 -147t-133.5 -60q-41 0 -74.5 16t-58 44.5t-37 65t-12.5 76.5q0 37 13 72.5t37 63.5t57 44t72 16zM483 462h-45v-80h-2q-29 43 -76.5 66.5t-101.5 23.5q-51 0 -93 -18
t-72 -50.5t-45.5 -76t-15.5 -93.5t16 -94.5t46 -78t72.5 -52.5t93.5 -19q53 0 102 25t74 68h2v-83h45v462z" />
    <glyph glyph-name="atilde" unicode="&#xe3;" horiz-adv-x="560" 
d="M166 586q6 19 16.5 30t27.5 11q14 0 30.5 -5.5t37.5 -14.5q24 -10 38.5 -15t26.5 -5q28 0 51 19t30 46l-29 22q-6 -17 -18.5 -29t-29.5 -12q-15 0 -48 14l-15 6l-1 1q-45 18 -69 18q-26 0 -46.5 -18.5t-31.5 -45.5zM256 430q83 0 134 -54.5t51 -136.5q0 -87 -48.5 -147
t-133.5 -60q-41 0 -74.5 16t-58 44.5t-37 65t-12.5 76.5q0 37 13 72.5t37 63.5t57 44t72 16zM483 462h-45v-80h-2q-29 43 -76.5 66.5t-101.5 23.5q-51 0 -93 -18t-72 -50.5t-45.5 -76t-15.5 -93.5t16 -94.5t46 -78t72.5 -52.5t93.5 -19q53 0 102 25t74 68h2v-83h45v462z" />
    <glyph glyph-name="adieresis" unicode="&#xe4;" horiz-adv-x="560" 
d="M187 674q-16 0 -28 -12t-12 -28t12 -28t28 -12t28 12t12 28t-12 28t-28 12zM374 674q-16 0 -28 -12t-12 -28t12 -28t28 -12t28 12t12 28t-12 28t-28 12zM256 430q83 0 134 -54.5t51 -136.5q0 -87 -48.5 -147t-133.5 -60q-41 0 -74.5 16t-58 44.5t-37 65t-12.5 76.5
q0 37 13 72.5t37 63.5t57 44t72 16zM483 462h-45v-80h-2q-29 43 -76.5 66.5t-101.5 23.5q-51 0 -93 -18t-72 -50.5t-45.5 -76t-15.5 -93.5t16 -94.5t46 -78t72.5 -52.5t93.5 -19q53 0 102 25t74 68h2v-83h45v462z" />
    <glyph glyph-name="aring" unicode="&#xe5;" horiz-adv-x="560" 
d="M280 714q-36 0 -61.5 -25.5t-25.5 -61.5t25.5 -61.5t61.5 -25.5t61.5 25.5t25.5 61.5t-25.5 61.5t-61.5 25.5zM280 674q19 0 33 -14t14 -33t-14 -33t-33 -14t-33 14t-14 33t14 33t33 14zM256 430q83 0 134 -54.5t51 -136.5q0 -87 -48.5 -147t-133.5 -60q-41 0 -74.5 16
t-58 44.5t-37 65t-12.5 76.5q0 37 13 72.5t37 63.5t57 44t72 16zM483 462h-45v-80h-2q-29 43 -76.5 66.5t-101.5 23.5q-51 0 -93 -18t-72 -50.5t-45.5 -76t-15.5 -93.5t16 -94.5t46 -78t72.5 -52.5t93.5 -19q53 0 102 25t74 68h2v-83h45v462z" />
    <glyph glyph-name="ae" unicode="&#xe6;" horiz-adv-x="849" 
d="M416 268q3 32 18 61.5t40 52t56.5 35.5t65.5 13q33 0 63 -13t54 -36t39.5 -52t19.5 -61h-356zM222 237q26 0 52 -5.5t48 -17.5t35.5 -31.5t13.5 -47.5q0 -27 -14.5 -46.5t-38 -32t-50.5 -18.5t-51 -6q-28 0 -54 5t-48 16.5t-35.5 32t-13.5 49.5q0 28 14.5 48t38 32t50 17
t53.5 5zM763 136q-26 -47 -69.5 -75.5t-95.5 -28.5q-40 0 -73 15.5t-57 42.5t-37.5 62t-14.5 74h401q0 49 -15.5 93.5t-45 79t-71 54t-92.5 19.5q-63 0 -117 -35t-79 -93q-22 61 -69 94.5t-112 33.5q-89 0 -164 -38v-46q42 20 80 31t75 11q43 0 75 -15.5t51.5 -43
t28.5 -63.5t9 -78q-31 27 -67.5 38t-81.5 11q-35 0 -70 -8.5t-65 -25.5t-48 -45t-18 -66q0 -36 17 -63.5t45.5 -45.5t62 -26.5t67.5 -8.5q31 0 61.5 6.5t57.5 20.5t46 36t27 51h2q23 -53 76 -83.5t113 -30.5q64 0 117 32t89 88z" />
    <glyph glyph-name="ccedilla" unicode="&#xe7;" horiz-adv-x="477" 
d="M431 415q-67 57 -161 57q-50 0 -93.5 -18.5t-76 -51.5t-50.5 -77t-18 -93q0 -50 17.5 -94.5t49.5 -77.5t75.5 -51.5t94.5 -18.5q46 0 89.5 16.5t78.5 47.5v61q-32 -39 -76.5 -61t-93.5 -22q-40 0 -75 16t-61 44.5t-40 64.5t-14 75t14.5 75t40.5 63.5t61 43.5t75 16
q94 0 163 -75v60zM313 -42l-56 22l-93 -144l38 -19z" />
    <glyph glyph-name="egrave" unicode="&#xe8;" horiz-adv-x="510" 
d="M159 695l124 -145l38 17l-101 147zM478 227q0 50 -15 94.5t-44 78.5t-70.5 53t-92.5 19q-49 0 -90.5 -19t-71.5 -52.5t-46 -76.5t-16 -92t15.5 -93t45.5 -77.5t71.5 -52.5t91.5 -19q68 0 122 32.5t85 92.5l-38 22q-26 -48 -68 -76.5t-95 -28.5q-80 0 -132.5 53.5
t-52.5 141.5h401zM77 269q3 32 18 61.5t40 52t56 35t66 12.5q34 0 65 -12.5t54.5 -35.5t38 -52t18.5 -61h-356z" />
    <glyph glyph-name="eacute" unicode="&#xe9;" horiz-adv-x="510" 
d="M290 714l-101 -147l38 -17l124 145zM478 227q0 50 -15 94.5t-44 78.5t-70.5 53t-92.5 19q-49 0 -90.5 -19t-71.5 -52.5t-46 -76.5t-16 -92t15.5 -93t45.5 -77.5t71.5 -52.5t91.5 -19q68 0 122 32.5t85 92.5l-38 22q-26 -48 -68 -76.5t-95 -28.5q-80 0 -132.5 53.5
t-52.5 141.5h401zM77 269q3 32 18 61.5t40 52t56 35t66 12.5q34 0 65 -12.5t54.5 -35.5t38 -52t18.5 -61h-356z" />
    <glyph glyph-name="ecircumflex" unicode="&#xea;" horiz-adv-x="510" 
d="M117 588l36 -29l102 77l100 -77l38 29l-138 106zM478 227q0 50 -15 94.5t-44 78.5t-70.5 53t-92.5 19q-49 0 -90.5 -19t-71.5 -52.5t-46 -76.5t-16 -92t15.5 -93t45.5 -77.5t71.5 -52.5t91.5 -19q68 0 122 32.5t85 92.5l-38 22q-26 -48 -68 -76.5t-95 -28.5
q-80 0 -132.5 53.5t-52.5 141.5h401zM77 269q3 32 18 61.5t40 52t56 35t66 12.5q34 0 65 -12.5t54.5 -35.5t38 -52t18.5 -61h-356z" />
    <glyph glyph-name="edieresis" unicode="&#xeb;" horiz-adv-x="510" 
d="M162 674q-16 0 -28 -12t-12 -28t12 -28t28 -12t28 12t12 28t-12 28t-28 12zM349 674q-16 0 -28 -12t-12 -28t12 -28t28 -12t28 12t12 28t-12 28t-28 12zM478 227q0 50 -15 94.5t-44 78.5t-70.5 53t-92.5 19q-49 0 -90.5 -19t-71.5 -52.5t-46 -76.5t-16 -92t15.5 -93
t45.5 -77.5t71.5 -52.5t91.5 -19q68 0 122 32.5t85 92.5l-38 22q-26 -48 -68 -76.5t-95 -28.5q-80 0 -132.5 53.5t-52.5 141.5h401zM77 269q3 32 18 61.5t40 52t56 35t66 12.5q34 0 65 -12.5t54.5 -35.5t38 -52t18.5 -61h-356z" />
    <glyph glyph-name="igrave" unicode="&#xec;" horiz-adv-x="234" 
d="M21 695l124 -145l38 17l-101 147zM139 462h-45v-462h45v462z" />
    <glyph glyph-name="iacute" unicode="&#xed;" horiz-adv-x="234" 
d="M152 714l-101 -147l38 -17l124 145zM139 462h-45v-462h45v462z" />
    <glyph glyph-name="icircumflex" unicode="&#xee;" horiz-adv-x="234" 
d="M-21 588l36 -29l102 77l100 -77l38 29l-138 106zM139 462h-45v-462h45v462z" />
    <glyph glyph-name="idieresis" unicode="&#xef;" horiz-adv-x="234" 
d="M24 674q-16 0 -28 -12t-12 -28t12 -28t28 -12t28 12t12 28t-12 28t-28 12zM211 674q-16 0 -28 -12t-12 -28t12 -28t28 -12t28 12t12 28t-12 28t-28 12zM139 462h-45v-462h45v462z" />
    <glyph glyph-name="eth" unicode="&#xf0;" horiz-adv-x="547" 
d="M89 798q82 -49 130 -89l-137 -75l25 -34l146 82q41 -37 71.5 -71.5t52.5 -67.5t37.5 -66t29.5 -74q-31 29 -71 49.5t-98 20.5q-51 0 -95 -19t-77.5 -53t-52 -78t-18.5 -92t18.5 -92t51.5 -77.5t77 -52.5t93 -19q47 0 90 16t78 49.5t55 85t20 119.5q0 127 -59.5 240.5
t-162.5 204.5l147 82l-25 33l-155 -87q-35 28 -67.5 50t-71.5 45zM269 430q42 0 79 -15t64.5 -42t42.5 -64t15 -79q0 -41 -15 -77.5t-43 -63.5t-64.5 -42t-78.5 -15q-40 0 -75.5 16t-61.5 43.5t-40.5 63.5t-14.5 75t14.5 75.5t40.5 64.5t61.5 44t75.5 16z" />
    <glyph glyph-name="ntilde" unicode="&#xf1;" horiz-adv-x="490" 
d="M131 586q6 19 16.5 30t27.5 11q14 0 30.5 -5.5t37.5 -14.5q24 -10 38.5 -15t26.5 -5q28 0 51 19t30 46l-29 22q-6 -17 -18.5 -29t-29.5 -12q-15 0 -48 14l-15 6l-1 1q-45 18 -69 18q-26 0 -46.5 -18.5t-31.5 -45.5zM122 462h-45v-462h45v228q0 40 5.5 74.5t19.5 63.5
t41.5 46.5t68.5 17.5q37 0 59 -11.5t33.5 -32t15 -46t3.5 -61.5v-279h45v279q0 96 -33.5 144.5t-118.5 48.5q-45 0 -81 -21.5t-56 -60.5h-2v72z" />
    <glyph glyph-name="ograve" unicode="&#xf2;" horiz-adv-x="547" 
d="M177 695l124 -145l38 17l-101 147zM272 472q-49 0 -93 -19t-77 -52t-51.5 -77.5t-18.5 -93.5q0 -48 18.5 -92t51.5 -77t77 -52t93 -19q50 0 94.5 18t78 51t52 77t18.5 95t-18.5 95t-52 77t-78 51t-94.5 18zM269 430q42 0 79 -15t64.5 -42t42.5 -64t15 -79
q0 -41 -15 -77.5t-43 -63.5t-64.5 -42t-78.5 -15q-40 0 -75.5 16t-61.5 43.5t-40.5 63.5t-14.5 75t14.5 75.5t40.5 64.5t61.5 44t75.5 16z" />
    <glyph glyph-name="oacute" unicode="&#xf3;" horiz-adv-x="547" 
d="M308 714l-101 -147l38 -17l124 145zM272 472q-49 0 -93 -19t-77 -52t-51.5 -77.5t-18.5 -93.5q0 -48 18.5 -92t51.5 -77t77 -52t93 -19q50 0 94.5 18t78 51t52 77t18.5 95t-18.5 95t-52 77t-78 51t-94.5 18zM269 430q42 0 79 -15t64.5 -42t42.5 -64t15 -79
q0 -41 -15 -77.5t-43 -63.5t-64.5 -42t-78.5 -15q-40 0 -75.5 16t-61.5 43.5t-40.5 63.5t-14.5 75t14.5 75.5t40.5 64.5t61.5 44t75.5 16z" />
    <glyph glyph-name="ocircumflex" unicode="&#xf4;" horiz-adv-x="547" 
d="M136 588l36 -29l102 77l100 -77l38 29l-138 106zM272 472q-49 0 -93 -19t-77 -52t-51.5 -77.5t-18.5 -93.5q0 -48 18.5 -92t51.5 -77t77 -52t93 -19q50 0 94.5 18t78 51t52 77t18.5 95t-18.5 95t-52 77t-78 51t-94.5 18zM269 430q42 0 79 -15t64.5 -42t42.5 -64t15 -79
q0 -41 -15 -77.5t-43 -63.5t-64.5 -42t-78.5 -15q-40 0 -75.5 16t-61.5 43.5t-40.5 63.5t-14.5 75t14.5 75.5t40.5 64.5t61.5 44t75.5 16z" />
    <glyph glyph-name="otilde" unicode="&#xf5;" horiz-adv-x="547" 
d="M159 586q6 19 16.5 30t27.5 11q14 0 30.5 -5.5t37.5 -14.5q24 -10 38.5 -15t26.5 -5q28 0 51 19t30 46l-29 22q-6 -17 -18.5 -29t-29.5 -12q-15 0 -48 14l-15 6l-1 1q-45 18 -69 18q-26 0 -46.5 -18.5t-31.5 -45.5zM272 472q-49 0 -93 -19t-77 -52t-51.5 -77.5
t-18.5 -93.5q0 -48 18.5 -92t51.5 -77t77 -52t93 -19q50 0 94.5 18t78 51t52 77t18.5 95t-18.5 95t-52 77t-78 51t-94.5 18zM269 430q42 0 79 -15t64.5 -42t42.5 -64t15 -79q0 -41 -15 -77.5t-43 -63.5t-64.5 -42t-78.5 -15q-40 0 -75.5 16t-61.5 43.5t-40.5 63.5t-14.5 75
t14.5 75.5t40.5 64.5t61.5 44t75.5 16z" />
    <glyph glyph-name="odieresis" unicode="&#xf6;" horiz-adv-x="547" 
d="M180 674q-16 0 -28 -12t-12 -28t12 -28t28 -12t28 12t12 28t-12 28t-28 12zM367 674q-16 0 -28 -12t-12 -28t12 -28t28 -12t28 12t12 28t-12 28t-28 12zM272 472q-49 0 -93 -19t-77 -52t-51.5 -77.5t-18.5 -93.5q0 -48 18.5 -92t51.5 -77t77 -52t93 -19q50 0 94.5 18
t78 51t52 77t18.5 95t-18.5 95t-52 77t-78 51t-94.5 18zM269 430q42 0 79 -15t64.5 -42t42.5 -64t15 -79q0 -41 -15 -77.5t-43 -63.5t-64.5 -42t-78.5 -15q-40 0 -75.5 16t-61.5 43.5t-40.5 63.5t-14.5 75t14.5 75.5t40.5 64.5t61.5 44t75.5 16z" />
    <glyph glyph-name="divide" unicode="&#xf7;" 
d="M54 232h512v48h-512v-48zM310 82q-17 0 -29 -12t-12 -29t12 -29t29 -12t29 12t12 29t-12 29t-29 12zM310 512q-17 0 -29 -12t-12 -29t12 -29t29 -12t29 12t12 29t-12 29t-29 12z" />
    <glyph glyph-name="oslash" unicode="&#xf8;" horiz-adv-x="547" 
d="M119 108q-20 25 -31 57t-11 65q0 39 14.5 75.5t40.5 64.5t61.5 44t75.5 16q73 0 128 -44zM425 357q45 -53 45 -127q0 -41 -15 -77.5t-43 -63.5t-64.5 -42t-78.5 -15q-71 0 -124 48zM28 17l27 -27l60 60q31 -28 71.5 -44t85.5 -16q50 0 94.5 18t78 51t52 77t18.5 95
q0 46 -15 87t-43 71l62 62l-28 29l-63 -63q-66 55 -156 55q-49 0 -93 -19t-77 -52t-51.5 -77.5t-18.5 -93.5q0 -88 56 -153z" />
    <glyph glyph-name="ugrave" unicode="&#xf9;" horiz-adv-x="472" 
d="M130 695l124 -145l38 17l-101 147zM357 462v-261q0 -40 -4 -68.5t-16 -51t-36.5 -36t-64.5 -13.5t-64.5 13.5t-36.5 36t-16 51t-4 68.5v261h-45v-277q0 -49 5 -78.5t23 -54.5q23 -31 60 -46.5t78 -15.5t78 15.5t60 46.5q18 25 23 54.5t5 78.5v277h-45z" />
    <glyph glyph-name="uacute" unicode="&#xfa;" horiz-adv-x="472" 
d="M281 714l-101 -147l38 -17l124 145zM357 462v-261q0 -40 -4 -68.5t-16 -51t-36.5 -36t-64.5 -13.5t-64.5 13.5t-36.5 36t-16 51t-4 68.5v261h-45v-277q0 -49 5 -78.5t23 -54.5q23 -31 60 -46.5t78 -15.5t78 15.5t60 46.5q18 25 23 54.5t5 78.5v277h-45z" />
    <glyph glyph-name="ucircumflex" unicode="&#xfb;" horiz-adv-x="472" 
d="M98 588l36 -29l102 77l100 -77l38 29l-138 106zM357 462v-261q0 -40 -4 -68.5t-16 -51t-36.5 -36t-64.5 -13.5t-64.5 13.5t-36.5 36t-16 51t-4 68.5v261h-45v-277q0 -49 5 -78.5t23 -54.5q23 -31 60 -46.5t78 -15.5t78 15.5t60 46.5q18 25 23 54.5t5 78.5v277h-45z" />
    <glyph glyph-name="udieresis" unicode="&#xfc;" horiz-adv-x="472" 
d="M143 674q-16 0 -28 -12t-12 -28t12 -28t28 -12t28 12t12 28t-12 28t-28 12zM330 674q-16 0 -28 -12t-12 -28t12 -28t28 -12t28 12t12 28t-12 28t-28 12zM357 462v-261q0 -40 -4 -68.5t-16 -51t-36.5 -36t-64.5 -13.5t-64.5 13.5t-36.5 36t-16 51t-4 68.5v261h-45v-277
q0 -49 5 -78.5t23 -54.5q23 -31 60 -46.5t78 -15.5t78 15.5t60 46.5q18 25 23 54.5t5 78.5v277h-45z" />
    <glyph glyph-name="yacute" unicode="&#xfd;" horiz-adv-x="460" 
d="M280 714l-101 -147l38 -17l124 145zM215 -8l-111 -262h46l310 732h-46l-177 -418l-197 418h-47z" />
    <glyph glyph-name="thorn" unicode="&#xfe;" horiz-adv-x="560" 
d="M301 430q41 0 75 -16.5t58 -45.5t36.5 -65.5t12.5 -76.5q0 -38 -13 -73.5t-37 -62.5t-57 -42.5t-73 -15.5q-82 0 -133 53.5t-51 135.5q0 88 48.5 148.5t133.5 60.5zM122 80h2q28 -43 76 -66.5t102 -23.5q51 0 93 17.5t72 50t45.5 76t15.5 93.5q0 51 -16 95.5t-45.5 78
t-72 52.5t-94.5 19q-53 0 -102 -25t-74 -68h-2v446h-45v-1095h45v350z" />
    <glyph glyph-name="ydieresis" unicode="&#xff;" horiz-adv-x="460" 
d="M142 674q-16 0 -28 -12t-12 -28t12 -28t28 -12t28 12t12 28t-12 28t-28 12zM329 674q-16 0 -28 -12t-12 -28t12 -28t28 -12t28 12t12 28t-12 28t-28 12zM215 -8l-111 -262h46l310 732h-46l-177 -418l-197 418h-47z" />
    <glyph glyph-name="OE" unicode="&#x152;" horiz-adv-x="1193" 
d="M767 0h360v45h-312v345h305v45h-305v274h312v45h-360v-196h-2q-22 46 -57.5 84.5t-80.5 65.5t-95.5 41.5t-101.5 14.5q-79 0 -150.5 -29.5t-126.5 -83t-86 -124.5t-31 -150q0 -80 31 -151.5t89 -126.5q54 -51 125 -80t145 -29q52 0 103 14t96.5 40.5t81.5 64.5t58 85h2
v-194zM429 719q69 0 130.5 -27t108 -74.5t72.5 -110t26 -130.5q0 -67 -23.5 -127.5t-69.5 -108.5q-49 -50 -113.5 -78t-132.5 -28q-66 0 -128.5 26t-109.5 72q-50 47 -77.5 111t-27.5 133q0 68 27.5 130.5t75.5 110t111 74.5t131 27z" />
    <glyph glyph-name="oe" unicode="&#x153;" horiz-adv-x="945" 
d="M913 227q0 106 -59.5 175.5t-162.5 69.5q-68 0 -122 -35.5t-78 -98.5q-27 61 -86.5 97.5t-127.5 36.5q-50 0 -94.5 -18.5t-78.5 -51.5t-53 -77.5t-19 -94.5q0 -49 18.5 -93.5t52 -77t78 -51t94.5 -18.5q69 0 128 37.5t88 98.5q24 -61 79.5 -98.5t121.5 -37.5
q68 0 121.5 33t83.5 93l-38 23q-24 -51 -65.5 -79t-97.5 -28q-38 0 -71 14.5t-58 41t-39 62t-14 77.5h399zM514 269q3 32 18 61.5t39 52t55.5 35t65.5 12.5t65 -12.5t54.5 -35.5t38 -52t18.5 -61h-354zM276 430q40 0 75.5 -16t62 -44t41 -64t14.5 -76q0 -41 -15 -77
t-42.5 -63t-63.5 -42.5t-77 -15.5q-39 0 -74.5 15.5t-62.5 43t-42 63t-15 73.5q0 42 15 79t42 65t63.5 43.5t78.5 15.5z" />
    <glyph glyph-name="Scaron" unicode="&#x160;" horiz-adv-x="544" 
d="M420 923l-36 28l-102 -76l-100 76l-38 -28l138 -107zM464 658q-27 49 -77 77.5t-107 28.5q-85 0 -139 -53.5t-54 -137.5q0 -87 78 -135l136 -72l14 -7q32 -15 53.5 -27.5t41 -29t31.5 -39t12 -50.5q0 -36 -15 -69t-41 -57.5t-59.5 -38t-70.5 -13.5q-65 0 -111 36.5
t-71 99.5l-42 -19q27 -74 86 -118t136 -44q46 0 88.5 16.5t76 46.5t52.5 70t19 86q0 50 -21 86.5t-65 63.5l-144 75l-6 3q-31 15 -51 26t-38.5 26.5t-29.5 37t-11 48.5q0 60 41 102t101 42q51 0 88.5 -23t64.5 -66z" />
    <glyph glyph-name="scaron" unicode="&#x161;" horiz-adv-x="375" 
d="M326 666l-36 28l-102 -76l-100 76l-38 -28l138 -107zM310 398q-15 32 -49 53t-69 21q-52 0 -89 -33t-37 -84q0 -28 11.5 -48.5t30.5 -34.5t39.5 -23.5t53.5 -21.5q44 -15 67 -34t23 -57q0 -44 -30 -74t-74 -30t-72.5 25.5t-42.5 68.5l-44 -14q14 -56 57.5 -89t101.5 -33
q63 0 106 40.5t43 103.5q0 33 -11 56t-29 38t-38.5 24.5t-51.5 20.5q-48 18 -71.5 35t-23.5 50q0 29 24.5 50.5t54.5 21.5q27 0 48.5 -14t32.5 -38z" />
    <glyph glyph-name="Ydieresis" unicode="&#x178;" horiz-adv-x="559" 
d="M198 931q-16 0 -28 -12t-12 -28t12 -28t28 -12t28 12t12 28t-12 28t-28 12zM385 931q-16 0 -28 -12t-12 -28t12 -28t28 -12t28 12t12 28t-12 28t-28 12zM255 322v-322h48v322l251 432h-53l-222 -382l-222 382h-53z" />
    <glyph glyph-name="florin" unicode="&#x192;" 
d="M369 486l33 181q1 3 4 21q4 25 8 42t12.5 31.5t24 23t39.5 8.5q27 0 52 -11l9 41q-33 15 -65 15q-27 0 -53.5 -12t-40.5 -34q-10 -15 -16 -35.5t-12 -50.5l-1 -6l-40 -214h-68l-9 -45h69l-79 -411q-6 -33 -13 -57.5t-18 -42.5q-9 -15 -23.5 -20t-35.5 -5q-31 0 -67 14
l-9 -42q44 -17 80 -17q37 0 61 15.5t38.5 41.5t21 53t14.5 70l4 21l72 380h115l9 45h-116z" />
    <glyph glyph-name="circumflex" unicode="&#x2c6;" horiz-adv-x="426" 
d="M75 588l36 -29l102 77l100 -77l38 29l-138 106z" />
    <glyph glyph-name="tilde" unicode="&#x2dc;" horiz-adv-x="439" 
d="M105 586q6 19 16.5 30t27.5 11q14 0 30.5 -5.5t37.5 -14.5q24 -10 38.5 -15t26.5 -5q28 0 51 19t30 46l-29 22q-6 -17 -18.5 -29t-29.5 -12q-15 0 -48 14l-15 6l-1 1q-45 18 -69 18q-26 0 -46.5 -18.5t-31.5 -45.5z" />
    <glyph glyph-name="endash" unicode="&#x2013;" horiz-adv-x="500" 
d="M0 342v-45h500v45h-500z" />
    <glyph glyph-name="emdash" unicode="&#x2014;" horiz-adv-x="1000" 
d="M130 342v-45h740v45h-740z" />
    <glyph glyph-name="quoteleft" unicode="&#x2018;" horiz-adv-x="259" 
d="M118 524l68 229l-30 11l-83 -227z" />
    <glyph glyph-name="quoteright" unicode="&#x2019;" horiz-adv-x="259" 
d="M141 764l-68 -229l30 -11l83 227z" />
    <glyph glyph-name="quotesinglbase" unicode="&#x201a;" horiz-adv-x="259" 
d="M141 74l-68 -229l30 -11l83 226z" />
    <glyph glyph-name="quotedblleft" unicode="&#x201c;" horiz-adv-x="390" 
d="M249 524l68 229l-30 11l-83 -227zM118 524l68 229l-30 11l-83 -227z" />
    <glyph glyph-name="quotedblright" unicode="&#x201d;" horiz-adv-x="390" 
d="M141 764l-68 -229l30 -11l83 227zM272 764l-68 -229l30 -11l83 227z" />
    <glyph glyph-name="quotedblbase" unicode="&#x201e;" horiz-adv-x="390" 
d="M141 74l-68 -229l30 -11l83 226zM272 74l-68 -229l30 -11l83 226z" />
    <glyph glyph-name="dagger" unicode="&#x2020;" 
d="M286 754v-199h-181v-45h181v-688h48v688h181v45h-181v199h-48z" />
    <glyph glyph-name="daggerdbl" unicode="&#x2021;" 
d="M286 754v-199h-181v-45h181v-428h-181v-45h181v-215h48v215h181v45h-181v428h181v45h-181v199h-48z" />
    <glyph glyph-name="bullet" unicode="&#x2022;" 
d="M311 566q-40 0 -74.5 -14.5t-60.5 -40.5t-40 -60.5t-14 -73.5q0 -38 14 -72.5t40 -60.5t60.5 -40.5t74.5 -14.5t74.5 14.5t60 40.5t39.5 60.5t14 72.5q0 39 -14 73.5t-39.5 60.5t-60 40.5t-74.5 14.5z" />
    <glyph glyph-name="ellipsis" unicode="&#x2026;" horiz-adv-x="1000" 
d="M167 75q-17 0 -29 -12t-12 -29t12 -29t29 -12t29 12t12 29t-12 29t-29 12zM500 75q-17 0 -29 -12t-12 -29t12 -29t29 -12t29 12t12 29t-12 29t-29 12zM833 75q-17 0 -29 -12t-12 -29t12 -29t29 -12t29 12t12 29t-12 29t-29 12z" />
    <glyph glyph-name="perthousand" unicode="&#x2030;" horiz-adv-x="1034" 
d="M854 289q-64 0 -108 -42t-44 -107q0 -63 44 -105t108 -42t108 42t44 105q0 65 -44 107t-108 42zM854 247q45 0 77.5 -31t32.5 -76q0 -43 -32.5 -74t-77.5 -31q-44 0 -77 31t-33 74q0 45 32.5 76t77.5 31zM180 761q-64 0 -108 -42t-44 -107q0 -63 44 -105t108 -42t108 42
t44 105q0 65 -44 107t-108 42zM180 719q45 0 77.5 -31t32.5 -76q0 -43 -32.5 -74t-77.5 -31q-44 0 -77 31t-33 74q0 45 32.5 76t77.5 31zM538 771l-446 -770l31 -18l448 771zM484 289q-64 0 -108 -42t-44 -107q0 -63 44 -105t108 -42t108 42t44 105q0 65 -44 107t-108 42z
M484 247q45 0 77.5 -31t32.5 -76q0 -43 -32.5 -74t-77.5 -31q-44 0 -77 31t-33 74q0 45 32.5 76t77.5 31z" />
    <glyph glyph-name="guilsinglleft" unicode="&#x2039;" horiz-adv-x="277" 
d="M89 320l121 142l-29 27l-146 -169l146 -169l29 27z" />
    <glyph glyph-name="guilsinglright" unicode="&#x203a;" horiz-adv-x="277" 
d="M67 178l29 -27l146 169l-146 169l-29 -27l121 -142z" />
    <glyph glyph-name="trademark" unicode="&#x2122;" horiz-adv-x="940" 
d="M378 754h-320v-42h139v-379h42v379h139v42zM461 754v-421h42v379h4l163 -379h2l165 379h4v-379h42v421h-72l-139 -327h-2l-137 327h-72z" />
    </font>
</defs>
</svg>
